John Abercrombie - Timeless (1975) {ECM 1047}

Download Now

John Abercrombie - Timeless (1975) {ECM 1047}

John Abercrombie - Timeless (1975) {ECM 1047}
EAC 0.99pb5 | FLAC tracks level 6 | Cue+Log+M3U | Full Scans 300dpi | 239MB + 5% Recovery
Genre: Jazz, Fusion

"'Timeless' is right--in the future, this is the kind of interplanetary jazz they're going to be playing at the docking stations of newly colonized planets. Recorded in 1974, 'Timeless' is very much a product of its age. Lightning fast guitar and keyboard runs, hi-hats, and drums writhe around each other in serpentine fury, giving way to moments of stately grace and calm waters such as "Love Song." Composer John Abercrombie has remained one of the great session men and in-demand guitarists in both jazz and avant-garde circles since the mid-'70s."

Track List
01. Lungs
02. Love Song
03. Ralph's Piano Waltz
04. Red And Orange
05. Remembering
06. Timeless

musicians
John Abercrombie - guitar
Jack DeJohnette - drums
Jan Hammer - organ, piano, synthesizer

Produced by Manfred Eicher

Exact Audio Copy V0.99 prebeta 5 from 4. May 2009

EAC extraction logfile from 3. November 2010, 13:37

John Abercrombie / Timeless

Used drive : PLEXTOR CD-ROM PX-40TS Adapter: 6 ID: 3

Read mode : Secure
Utilize accurate stream : Yes
Defeat audio cache : Yes
Make use of C2 pointers : No

Read offset correction : 676
Overread into Lead-In and Lead-Out : No
Fill up missing offset samples with silence : Yes
Delete leading and trailing silent blocks : No
Null samples used in CRC calculations : Yes
Used interface : Native Win32 interface for Win NT & 2000
Gap handling : Appended to previous track

Used output format : User Defined Encoder
Selected bitrate : 768 kBit/s
Quality : High
Add ID3 tag : No
Command line compressor : C:\Program Files (x86)\Exact Audio Copy\FLAC\FLAC.EXE
Additional command line options : -6 -V -T "ARTIST=%a" -T "TITLE=%t" -T "ALBUM=%g" -T "DATE=%y" -T "TRACKNUMBER=%n" -T "GENRE=%m" -T "COMMENT=%e" %s -o %d

TOC of the extracted CD

Track | Start | Length | Start sector | End sector
---------------------------------------------------------
1 | 0:00.33 | 12:10.27 | 33 | 54809
2 | 12:10.60 | 4:35.73 | 54810 | 75507
3 | 16:46.58 | 4:55.72 | 75508 | 97704
4 | 21:42.55 | 5:24.03 | 97705 | 122007
5 | 27:06.58 | 4:33.52 | 122008 | 142534
6 | 31:40.35 | 11:57.53 | 142535 | 196362

Track 1

Filename D:\Music\John Abercrombie - Timeless\01. Lungs.wav

Pre-gap length 0:00:02.33

Peak level 85.0 %
Track quality 100.0 %
Test CRC 6ED18A72
Copy CRC 6ED18A72
Accurately ripped (confidence 17) [0FC3B814]
Copy OK

Track 2

Filename D:\Music\John Abercrombie - Timeless\02. Love Song.wav

Pre-gap length 0:00:02.00

Peak level 58.2 %
Track quality 100.0 %
Test CRC 21B72C68
Copy CRC 21B72C68
Accurately ripped (confidence 17) [97581054]
Copy OK

Track 3

Filename D:\Music\John Abercrombie - Timeless\03. Ralph's Piano Waltz.wav

Pre-gap length 0:00:01.60

Peak level 76.2 %
Track quality 100.0 %
Test CRC 0BDF0422
Copy CRC 0BDF0422
Accurately ripped (confidence 16) [E1A6DE30]
Copy OK

Track 4

Filename D:\Music\John Abercrombie - Timeless\04. Red And Orange.wav

Pre-gap length 0:00:03.62

Peak level 69.8 %
Track quality 100.0 %
Test CRC E6F5E0D2
Copy CRC E6F5E0D2
Accurately ripped (confidence 16) [FBAF25E2]
Copy OK

Track 5

Filename D:\Music\John Abercrombie - Timeless\05. Remembering.wav

Pre-gap length 0:00:02.23

Peak level 60.1 %
Track quality 100.0 %
Test CRC 86D6B0BB
Copy CRC 86D6B0BB
Accurately ripped (confidence 17) [90C60B29]
Copy OK

Track 6

Filename D:\Music\John Abercrombie - Timeless\06. Timeless.wav

Pre-gap length 0:00:01.30

Peak level 58.3 %
Track quality 99.8 %
Test CRC 75A9FDCF
Copy CRC 75A9FDCF
Accurately ripped (confidence 17) [F98BAF4B]
Copy OK

All tracks accurately ripped

No errors occurred

End of status report

--------------------------------------------------------------------------------
Analyzed: John Abercrombie / Timeless
--------------------------------------------------------------------------------

DR Peak RMS Duration Track
--------------------------------------------------------------------------------
DR14 -1.41 dB -18.67 dB 12:11 01-Lungs
DR11 -4.69 dB -19.61 dB 4:36 02-Love Song
DR13 -2.35 dB -18.39 dB 4:56 03-Ralph's Piano Waltz
DR12 -3.12 dB -17.38 dB 5:24 04-Red And Orange
DR12 -4.42 dB -20.01 dB 4:34 05-Remembering
DR11 -4.68 dB -19.54 dB 11:58 06-Timeless
--------------------------------------------------------------------------------

Number of tracks: 6
Official DR value: DR12

Samplerate: 44100 Hz
Channels: 2
Bits per sample: 16
Bitrate: 603 kbps
Codec: FLAC
================================================================================
Download link:

Buy Premium To Support Me & Get Resumable Support & Max Speed:



Links are Interchangeable - No Password - Single Extraction

Direct Download

Tags: Abercrombie, Timeless

John Abercrombie - Timeless (1975) {ECM 1047} Download via Hotfile Rapidshare Fileserve Megaupload & FileSonic, John Abercrombie - Timeless (1975) {ECM 1047} free torrent downloads included crack, serial, keygen.


Attention!Information

Members of Guest cannot leave comments.