Space Tribe - 2 Studio Albums (1996-1997)

Download Now

Space Tribe - 2 Studio Albums (1996-1997)

Space Tribe - 2 Studio Albums (1996-1997)
EAC Rip | FLAC (image+.cue+log) - 1,02 GB | MP3 CBR 320 kbps (LAME 3.93) - 330 MB | Covers - 279 MB
Genre: Goa Trance | RAR 3% Rec. | Label: Spirit Zone Records

"Olli Wisdom is a British Goa and psytrance musician, and clothing producer, currently residing in London. Since the 1990s he has recorded under the name Space Tribe. Space Tribe released the first album on Spirit Zone - Sonic Mandala in 1996 and since then Space Tribe have released an album each year on Spirit Zone Records and more recently Space Tribe Music. Olli is travelling all over the world playing parties bringing joy to the thousands of dancers who know exactly why they are there. Space Tribe have performed at festivals and parties in Australia, Brazil, Japan, South Africa, Israel, America, Thailand, India, Ibiza, Bali, England, Germany, Hungary, Holland, France, Sweden, Norway, Denmark, Finland and many more..."

Space Tribe - 2 Studio Albums (1996-1997)

Space Tribe - Sonic Mandala (1996)
EAC Rip | FLAC (image+.cue+log) - 525 MB | MP3 CBR 320 kbps (LAME 3.93) - 172 MB | Covers - 113 MB
Genre: Goa Trance | RAR 3% Rec. | Label: Spirit Zone Records (SPIRIT ZONE 017)

Tracklist:
01. Ultrasonic Heartbeat
02. Waking Dreams
03. Solar Power
04. Sonic Mandala (Crop Circle Mix)
05. The Great Spirit (Hallucinogenic Remix)
06. Tantra Mantra
07. In The Hands Of The Shaman
08. Atomic Pow Wow
09. The Flower Of Life

Total time: 01:13:18

Exact Audio Copy V1.0 beta 3 from 29. August 2011

EAC extraction logfile from 10. September 2013, 12:12

Space Tribe / Sonic Mandala

Used drive : HL-DT-STDVDRAM GT30N Adapter: 0 ID: 1

Read mode : Secure
Utilize accurate stream : Yes
Defeat audio cache : Yes
Make use of C2 pointers : No

Read offset correction

: 103
Overread into Lead-In and Lead-Out : No
Fill up missing offset samples with silence : Yes
Delete leading and trailing silent blocks : No
Null samples used in CRC calculations : Yes
Used interface
: Native Win32 interface for Win NT & 2000

Used output format : User Defined Encoder
Selected bitrate : 1024 kBit/s
Quality : High
Add ID3 tag : No
Command line compressor : C:\Program Files\Exact Audio Copy\Flac\flac.exe
Additional command line options : -8 -V -T "ARTIST=%artist%" -T "TITLE=%title%" -T "ALBUM=%albumtitle%" -T "DATE=%year%" -T "TRACKNUMBER=%tracknr%" -T "GENRE=%genre%" -T "COMMENT=SpaceWalker" %source%

TOC of the extracted CD Track | Start | Length | Start sector | End sector
--1 | 0:00.00 | 8:41.62 | 0 | 39136 2 | 8:41.62 | 7:35.56 | 39137 | 73317 3 | 16:17.43 | 7:42.69 | 73318 | 108036 4 | 24:00.37 | 9:27.04 | 108037 | 150565 5 | 33:27.41 | 8:15.31 | 150566 | 187721 6 | 41:42.72 | 8:31.38 | 187722 | 226084 7 | 50:14.35 | 8:58.54 | 226085 | 266488 8 | 59:13.14 | 6:36.50 | 266489 | 296238 9 | 65:49.64 | 7:28.24 | 296239 | 329862

Range status and errors

Selected range Filename D:\Laren\GoaTrance\Space Tribe - Sonic Mandala.wav Peak level 99.9 %
Extraction speed 2.3 X
Range quality 100.0 %
Test CRC 1D17C06B
Copy CRC 1D17C06B
Copy OK

No errors occurred


AccurateRip summary

Track 1 accurately ripped (confidence 2) [F6606208] (AR v2)
Track 2 accurately ripped (confidence 2) [EB589BD8] (AR v2)
Track 3 accurately ripped (confidence 2) [68835A0A] (AR v2)
Track 4 accurately ripped (confidence 2) [A5537E34] (AR v2)
Track 5 accurately ripped (confidence 2) [E42CA741] (AR v2)
Track 6 accurately ripped (confidence 2) [2B1140FF] (AR v2)
Track 7 accurately ripped (confidence 2) [FC25A681] (AR v2)
Track 8 accurately ripped (confidence 2) [D3A48E33] (AR v2)
Track 9 accurately ripped (confidence 2) [7127B4D0] (AR v2)

All tracks accurately ripped

End of status report

==== Log checksum EF5F483BF62514BFC269024F2023FF9943AC9952FDDB27B42B4A2319B7C3C675 ====

[CUETools log; Date: 09.12.2015 17:23:24; Version: 2.1.4]
[CTDB TOCID: iebKDC27WxZVgeoUS0aVIdTwMPg-] found.
Track | CTDB Status
1 | (7/7) Accurately ripped
2 | (7/7) Accurately ripped
3 | (7/7) Accurately ripped
4 | (7/7) Accurately ripped
5 | (7/7) Accurately ripped
6 | (7/7) Accurately ripped
7 | (6/7) Accurately ripped
8 | (7/7) Accurately ripped
9 | (7/7) Accurately ripped
[AccurateRip ID: 00199890-00bb833b-74112e09] found.
Track [ CRC | V2 ] Status
01 a5a7d38|f6606208 (08+06/14) Accurately ripped
02 [01295ed9|eb589bd8] (09+06/15) Accurately ripped
03 [642495c5|68835a0a] (09+06/15) Accurately ripped
04 [7bedaec6|a5537e34] (10+06/16) Accurately ripped
05 [18cf2628|e42ca741] (09+06/15) Accurately ripped
06 [e70c1b9d|2b1140ff] (09+06/15) Accurately ripped
07 [28333594|fc25a681] (09+06/15) Accurately ripped
08 [0a8aa583|d3a48e33] (09+06/15) Accurately ripped
09 [1aed6ef9|7127b4d0] (08+06/14) Accurately ripped

Track Peak [ CRC32 ] [W/O NULL] [ LOG ]
-- 99,9 [1D17C06B] [EB34EBD4] CRC32
01 99,7 [2DA3B5F7] [79055213]
02 98,9 [4CFAD2E8] [5B6C8663]
03 99,9 C22A96B [6AB3F720]
04 99,5 [26783461] [DBCE929D]
05 99,7 [3112190C] E424776
06 99,2 A457F64 [E79B06D0]
07 98,9 [241016FD] [A58111DD]
08 99,5 [992AC1A7] [7C0D7D5B]
09 99,3 [8550F331] [2717021C]


Space Tribe - 2 Studio Albums (1996-1997)

Space Tribe - The Ultraviolet Catastrophe (1997)
EAC Rip | FLAC (image+.cue+log) - 501 MB | MP3 CBR 320 kbps (LAME 3.93) - 158 MB | Covers - 166 MB
Genre: Goa Trance | RAR 3% Rec. | Label: Spirit Zone Records (SPIRIT ZONE 031)

Tracklist:
01. All You Need Is Spirit And Nothing
02. Live What U Love
03. The Ultraviolet Catastrophe
04. Know Your Dopefiend
05. The Journey Is The Goal
06. Nuclear Fission Chips
07. The Source Energy

Total time: 01:07:03

Exact Audio Copy V1.0 beta 3 from 29. August 2011

EAC extraction logfile from 10. September 2013, 19:51

Space Tribe / The Ultraviolet Catastrophe

Used drive : HL-DT-STDVDRAM GT30N Adapter: 0 ID: 1

Read mode : Secure
Utilize accurate stream : Yes
Defeat audio cache : Yes
Make use of C2 pointers : No

Read offset correction

: 103
Overread into Lead-In and Lead-Out : No
Fill up missing offset samples with silence : Yes
Delete leading and trailing silent blocks : No
Null samples used in CRC calculations : Yes
Used interface
: Native Win32 interface for Win NT & 2000

Used output format : User Defined Encoder
Selected bitrate : 1024 kBit/s
Quality : High
Add ID3 tag : No
Command line compressor : C:\Program Files\Exact Audio Copy\Flac\flac.exe
Additional command line options : -8 -V -T "ARTIST=%artist%" -T "TITLE=%title%" -T "ALBUM=%albumtitle%" -T "DATE=%year%" -T "TRACKNUMBER=%tracknr%" -T "GENRE=%genre%" -T "COMMENT=SpaceWalker" %source%

TOC of the extracted CD Track | Start | Length | Start sector | End sector
--1 | 0:00.00 | 8:52.19 | 0 | 39918 2 | 8:52.19 | 8:01.17 | 39919 | 76010 3 | 16:53.36 | 12:20.30 | 76011 | 131540 4 | 29:13.66 | 8:41.39 | 131541 | 170654 5 | 37:55.30 | 9:20.67 | 170655 | 212721 6 | 47:16.22 | 8:17.59 | 212722 | 250055 7 | 55:34.06 | 11:28.54 | 250056 | 301709

Range status and errors

Selected range Filename D:\Laren\GoaTrance\Space Tribe - The Ultraviolet Catastrophe.wav Peak level 99.4 %
Extraction speed 2.2 X
Range quality 100.0 %
Test CRC 4DD037CF
Copy CRC 4DD037CF
Copy OK

No errors occurred


AccurateRip summary

Track 1 cannot be verified as accurate (confidence 2) [14C5EE6E], AccurateRip returned [E747D01D] (AR v2)
Track 2 cannot be verified as accurate (confidence 2) [588A5BD5], AccurateRip returned [58325980] (AR v2)
Track 3 cannot be verified as accurate (confidence 2) [8D636532], AccurateRip returned [F542DD7F] (AR v2)
Track 4 cannot be verified as accurate (confidence 2) [0AFCB68F], AccurateRip returned [D2726E97] (AR v2)
Track 5 cannot be verified as accurate (confidence 2) [5F5D951D], AccurateRip returned [4A8C0C59] (AR v2)
Track 6 cannot be verified as accurate (confidence 2) [857928D7], AccurateRip returned [63A70638] (AR v2)
Track 7 cannot be verified as accurate (confidence 2) [039BFF93], AccurateRip returned [EF95EEDD] (AR v2)

No tracks could be verified as accurate
You may have a different pressing from the one(s) in the database

End of status report

==== Log checksum 181B4C403953C79DA5533C6F589331DB73D10BF0B9A2070DA0E5C32B2F865645 ====

[CUETools log; Date: 09.12.2015 17:23:44; Version: 2.1.4]
[CTDB TOCID: vEf5IBT4YVsnle9XaXNj9u0Y4.4-] found.
Track | CTDB Status
1 | (5/5) Accurately ripped
2 | (5/5) Accurately ripped
3 | (5/5) Accurately ripped
4 | (5/5) Accurately ripped
5 | (5/5) Accurately ripped
6 | (5/5) Accurately ripped
7 | (5/5) Accurately ripped
[AccurateRip ID: 00120b96-006cc2a3-5d0fb607] found.
Track [ CRC | V2 ] Status
01 [64acd018|14c5ee6e] (0+3/5) Accurately ripped
02 [d6b838d6|588a5bd5] (0+3/5) Accurately ripped
03 [0c81de8c|8d636532] (0+3/5) Accurately ripped
04 [ee66535b|0afcb68f] (0+3/5) Accurately ripped
05 [3e5f490e|5f5d951d] (0+3/5) Accurately ripped
06 [faf853c9|857928d7] (0+3/5) Accurately ripped
07 [cf0b899e|039bff93] (0+3/5) Accurately ripped
Offsetted by -659:
01 [e747d01d] (2/5) Accurately ripped
02 [58325980] (2/5) Accurately ripped
03 [f542dd7f] (2/5) Accurately ripped
04 [d2726e97] (2/5) Accurately ripped
05 [4a8c0c59] (2/5) Accurately ripped
06 [63a70638] (2/5) Accurately ripped
07 [ef95eedd] (2/5) Accurately ripped

Track Peak [ CRC32 ] [W/O NULL] [ LOG ]
-- 99,4 [4DD037CF] [AA9E2AA3] CRC32
01 99,4 [C8763B8A] 7D1AA14
02 99,4 [90A520BE] [3D7EA995]
03 98,8 [51767C20] [3963C10C]
04 62,9 [A6C2C7BD] [25D2A72F]
05 99,2 [E21EBF3E] [62587BFF]
06 99,3 [455A5765] [80242294]
07 98,9 [02408FE8] [9BF17D23]

Thanks to laren7
DOWNLOAD LINKS:
(Premium Recommended)


All above links are interchangable. No password

Direct Download

Tags: Studio, Albums

Space Tribe - 2 Studio Albums (1996-1997) Download via Hotfile Rapidshare Fileserve Megaupload & FileSonic, Space Tribe - 2 Studio Albums (1996-1997) free torrent downloads included crack, serial, keygen.


Attention!Information

Members of Guest cannot leave comments.