Telemann: Twelve Fantasies for Solo Violin 1735 - Rachel Podger [2006]

Download Now


Telemann: Twelve Fantasies for Solo Violin 1735 - Rachel Podger [2006]
Telemann: Twelve Fantasies for Solo Violin 1735 - Rachel Podger [2006]
Genre: Classical | Style: Baroque | Label: Channel | Country/Year: Netherlands, 2006 | 5% Rec. Info
FLAC (tracks) | EAC+CUE+LOG+PDF Booklet | Total Time: 75:02 | 399 MB

"This is a true gem from the Baroque era that is rarely played or recorded. These fantasies for solo violin were written in 1735, only 15 yrs after Bach wrote his infinitely famous Sonatas and Partidas for solo violin. Fans of Bach looking for new music will be happy listening to these fresh works. I really enjoy the imagination and creativity displayed here, plenty of rhythmic diversity and unattached musical ideas to spare."

Selections:

01. Twelve Fantasies for Solo Violin: Fantasia 1 in B-flat Major
02. Twelve Fantasies for Solo Violin: Fantasia 2 in G Major
03. Twelve Fantasies for Solo Violin: Fantasia 3 in F Minor
04. Twelve Fantasies for Solo Violin: Fantasia 4 in D Major
05. Twelve Fantasies for Solo Violin: Fantasia 5 in A Major
06. Twelve Fantasies for Solo Violin: Fantasia 6 in E Minor
07. Twelve Fantasies for Solo Violin: Fantasia 7 in E-flat Major
08. Twelve Fantasies for Solo Violin: Fantasia 8 in E Major
09. Twelve Fantasies for Solo Violin: Fantasia 9 in B Minor
10. Twelve Fantasies for Solo Violin: Fantasia 10 in D Major
11. Twelve Fantasies for Solo Violin: Fantasia 11 in F Major
12. Twelve Fantasies for Solo Violin: Fantasia 12 in A Minor

Exact Audio Copy V1.0 beta 2 from 29. April 2011

EAC extraction logfile from 18. February 2013, 17:52

Rachel Podger / Twelve Fantasies for Solo Violin

Used drive : TSSTcorpCD/DVDW SH-S182M Adapter: 1 ID: 0

Read mode : Secure
Utilize accurate stream : Yes
Defeat audio cache : Yes
Make use of C2 pointers : No

Read offset correction

: 6
Overread into Lead-In and Lead-Out : No
Fill up missing offset samples with silence : Yes
Delete leading and trailing silent blocks : No
Null samples used in CRC calculations : Yes
Used interface
: Native Win32 interface for Win NT & 2000
Gap handling
: Appended to previous track

Used output format : User Defined Encoder
Selected bitrate : 128 kBit/s
Quality : High
Add ID3 tag : No
Command line compressor : C:\Program Files\Exact Audio Copy\Flac\flac.exe
Additional command line options : -8 -V -T "ARTIST=%artist%" -T "TITLE=%title%" -T "ALBUM=%albumtitle%" -T "DATE=%year%" -T "TRACKNUMBER=%tracknr%" -T "GENRE=%genre%" -T "PERFORMER=%albuminterpret%" -T "COMPOSER=%composer%" %haslyrics%--tag-from-file=LYRICS

TOC of the extracted CD Track | Start | Length | Start sector | End sector
--1 | 0:00.00 | 8:18.47 | 0 | 37396 2 | 8:18.47 | 4:49.45 | 37397 | 59116 3 | 13:08.17 | 5:27.15 | 59117 | 83656 4 | 18:35.32 | 5:15.10 | 83657 | 107291 5 | 23:50.42 | 5:14.48 | 107292 | 130889 6 | 29:05.15 | 9:02.45 | 130890 | 171584 7 | 38:07.60 | 8:50.15 | 171585 | 211349 8 | 46:58.00 | 5:50.55 | 211350 | 237654 9 | 52:48.55 | 6:41.47 | 237655 | 267776
10 | 59:30.27 | 5:58.05 | 267777 | 294631
11 | 65:28.32 | 6:16.00 | 294632 | 322831
12 | 71:44.32 | 4:42.50 | 322832 | 344031

Track 1 Filename D:\Rips\01 - Fantasia 1 in B flat Major TWV 40-14.wav Pre-gap length 0:00:02.00 Peak level 92.8 %
Extraction speed 5.2 X
Track quality 99.9 %
Test CRC 717EB3CB
Copy CRC 717EB3CB
Accurately ripped (confidence 2) D605291 (AR v2)
Copy OK

Track 2 Filename D:\Rips\02 - Fantasia 2 in G Major TWV 40-15.wav Pre-gap length 0:00:09.09 Peak level 93.6 %
Extraction speed 6.1 X
Track quality 100.0 %
Test CRC B85CFFB6
Copy CRC B85CFFB6
Accurately ripped (confidence 2) [CBB8D961] (AR v2)
Copy OK

Track 3 Filename D:\Rips\03 - Fantasia 3 in F Minor TWV 40-16.wav Pre-gap length 0:00:08.96 Peak level 95.7 %
Extraction speed 6.6 X
Track quality 100.0 %
Test CRC 82825C03
Copy CRC 82825C03
Accurately ripped (confidence 2) [73A185E8] (AR v2)
Copy OK

Track 4 Filename D:\Rips\04 - Fantasia 4 in D Major TWV 40-17.wav Pre-gap length 0:00:09.40 Peak level 97.9 %
Extraction speed 7.0 X
Track quality 100.0 %
Test CRC 5D4C18D6
Copy CRC 5D4C18D6
Accurately ripped (confidence 2) [F60EADE0] (AR v2)
Copy OK

Track 5 Filename D:\Rips\05 - Fantasia 5 in A Major TWV 40-18.wav Pre-gap length 0:00:08.26 Peak level 97.9 %
Extraction speed 6.7 X
Track quality 100.0 %
Test CRC A036F904
Copy CRC A036F904
Accurately ripped (confidence 2) [86CB6D2A] (AR v2)
Copy OK

Track 6 Filename D:\Rips\06 - Fantasia 6 in E Minor TWV 40-19.wav Pre-gap length 0:00:06.60 Peak level 97.9 %
Extraction speed 8.0 X
Track quality 100.0 %
Test CRC ABC36207
Copy CRC ABC36207
Accurately ripped (confidence 2) [14637D84] (AR v2)
Copy OK

Track 7 Filename D:\Rips\07 - Fantasia 7 in E flat Major TWV 40-20.wav Pre-gap length 0:00:08.10 Peak level 92.3 %
Extraction speed 7.7 X
Track quality 99.9 %
Test CRC 4A1202F2
Copy CRC 4A1202F2
Accurately ripped (confidence 2) [17C63244] (AR v2)
Copy OK

Track 8 Filename D:\Rips\08 - Fantasia 8 in E Major TWV 40-21.wav Pre-gap length 0:00:11.80 Peak level 81.9 %
Extraction speed 8.9 X
Track quality 100.0 %
Test CRC A9323F25
Copy CRC A9323F25
Accurately ripped (confidence 2) [8BAC582E] (AR v2)
Copy OK

Track 9 Filename D:\Rips\09 - Fantasia 9 in B Minor TWV 40-22.wav Pre-gap length 0:00:10.53 Peak level 88.3 %
Extraction speed 9.6 X
Track quality 100.0 %
Test CRC B80E8AA9
Copy CRC B80E8AA9
Accurately ripped (confidence 2) [7780F711] (AR v2)
Copy OK

Track 10 Filename D:\Rips\10 - Fantasia 10 in D Major TWV 40-23.wav Pre-gap length 0:00:09.69 Peak level 70.6 %
Extraction speed 9.9 X
Track quality 100.0 %
Test CRC 563A943A
Copy CRC 563A943A
Accurately ripped (confidence 2) [5C875DF2] (AR v2)
Copy OK

Track 11 Filename D:\Rips\11 - Fantasia 11 in F Major TWV 40-24.wav Pre-gap length 0:00:09.69 Peak level 80.1 %
Extraction speed 10.2 X
Track quality 100.0 %
Test CRC DF2AB07C
Copy CRC DF2AB07C
Accurately ripped (confidence 2) [2FBFCB32] (AR v2)
Copy OK

Track 12 Filename D:\Rips\12 - Fantasia 12 in A Minor TWV 40-25.wav Pre-gap length 0:00:08.13 Peak level 85.0 %
Extraction speed 10.3 X
Track quality 100.0 %
Test CRC 33FBCC23
Copy CRC 33FBCC23
Accurately ripped (confidence 2) [97041AEA] (AR v2)
Copy OK

All tracks accurately ripped

No errors occurred

End of status report

==== Log checksum AEBAA96E10430B13FD164CE1FD86A686F01F8D2965586172ECB00672C124610A ====
Download Links:
(Premium Recommended)


All above links are interchangable. No password

Direct Download

Tags: Telemann, Twelve, Fantasies, Violin, Rachel, Podger

Telemann: Twelve Fantasies for Solo Violin 1735 - Rachel Podger [2006] Download via Hotfile Rapidshare Fileserve Megaupload & FileSonic, Telemann: Twelve Fantasies for Solo Violin 1735 - Rachel Podger [2006] free torrent downloads included crack, serial, keygen.


Attention!Information

Members of Guest cannot leave comments.