Casa Das Máquinas - Lar Das Maravilhas (1975)

Download Now

Casa Das Máquinas - Lar Das Maravilhas (1975)

Casa Das Máquinas - Lar Das Maravilhas (1975)
EAC Rip | FLAC (tracks & cue & log) | 281 MB | MP3 CBR 320 kbps | 108 MB | Scans | 0:43:31
Genre: Progressive Rock / Psychedelic Rock / Hard Rock | Country: Brazil | Label: CAST | 403.0039

"CASA DAS MÁQUINAS (meaning 'house of wonders') are a mid-70's Brazilian band from São Paulo borne out of the disenchantment of two musicians from glam/dance pop band OS INCRÍVEIS, namely drummer/percussionnist Netinho and guitarist/vocalist Aroldo who wanted to take a less commercial route. Recruiting three other musicians, they recorded 3 albums between 1974 and 1977; a compilation disk was also released in 2000. Their material is mostly heavy, bluesy hard rock with complex arrangements and thick guitar leads. The vocals are in Portuguese."

Casa Das Máquinas - Lar Das Maravilhas (1975)


Tracklist:

1. Vou Morar No Ar (3:33)
2. Lar De Maravilhas (6:15)
3. Liberdade Espacial (2:22)
4. Astralização (5:29)
5. Cilindro Cônico (5:01)
6. Vale Verde (6:55)
7. Raios De Lua (2:59)
8. Epidemia De Rock (3:02)
9. O Sol/Reflexo Ativo (7:55)

Exact Audio Copy V0.99 prebeta 5 from 4. May 2009

EAC extraction logfile from 4. January 2012, 1:21

Casa das Mбquinas / Lar de Maravilhas

Used drive : TSSTcorpDVD+-RW TS-H653A Adapter: 1 ID: 0

Read mode : Secure
Utilize accurate stream : Yes
Defeat audio cache : Yes
Make use of C2 pointers : No

Combined read/write offset correction : 6
Overread into Lead-In and Lead-Out : No
Fill up missing offset samples with silence : Yes
Delete leading and trailing silent blocks : No
Null samples used in CRC calculations : No
Used interface
: Native Win32 interface for Win NT & 2000
Gap handling
: Appended to previous track

Used output format : User Defined Encoder
Selected bitrate : 768 kBit/s
Quality : High
Add ID3 tag : Yes
Command line compressor : C:\Program Files\Exact Audio Copy\FLAC\FLAC.EXE
Additional command line options : -8 -V -T "ARTIST=%a" -T "TITLE=%t" -T "ALBUM=%g" -T "DATE=%y" -T "TRACKNUMBER=%n" -T "GENRE=%m" -T "COMMENT=%e" %s -o %d

TOC of the extracted CD Track | Start | Length | Start sector | End sector
--1 | 0:00.32 | 3:33.48 | 32 | 16054 2 | 3:34.05 | 6:15.40 | 16055 | 44219 3 | 9:49.45 | 2:21.30 | 44220 | 54824 4 | 12:11.00 | 5:30.12 | 54825 | 79586 5 | 17:41.12 | 5:01.45 | 79587 | 102206 6 | 22:42.57 | 6:55.25 | 102207 | 133356 7 | 29:38.07 | 2:59.05 | 133357 | 146786 8 | 32:37.12 | 3:02.08 | 146787 | 160444 9 | 35:39.20 | 7:55.42 | 160445 | 196111

Track 1 Filename C:\eac\OldrockerBR\Casa das Mбquinas\Lar de Maravilhas\01.Vou morar no ar.wav Pre-gap length 0:00:02.32 Peak level 97.7 %
Track quality 99.9 %
Test CRC 4C362562
Copy CRC 4C362562
Copy OK

Track 2 Filename C:\eac\OldrockerBR\Casa das Mбquinas\Lar de Maravilhas\02.Lar de Maravilhas.wav Pre-gap length 0:00:00.50 Peak level 97.7 %
Track quality 100.0 %
Test CRC AC56C163
Copy CRC AC56C163
Copy OK

Track 3 Filename C:\eac\OldrockerBR\Casa das Mбquinas\Lar de Maravilhas\03.Liberdade Espacial.wav Pre-gap length 0:00:00.50 Peak level 97.7 %
Track quality 100.0 %
Test CRC 7F3CF3C2
Copy CRC 7F3CF3C2
Copy OK

Track 4 Filename C:\eac\OldrockerBR\Casa das Mбquinas\Lar de Maravilhas\04.Astralizaзгo.wav Pre-gap length 0:00:00.50 Peak level 97.7 %
Track quality 100.0 %
Test CRC 382BF718
Copy CRC 382BF718
Copy OK

Track 5 Filename C:\eac\OldrockerBR\Casa das Mбquinas\Lar de Maravilhas\05.Cilindro Cфnico.wav Pre-gap length 0:00:00.50 Peak level 97.7 %
Track quality 100.0 %
Test CRC 39431674
Copy CRC 39431674
Copy OK

Track 6 Filename C:\eac\OldrockerBR\Casa das Mбquinas\Lar de Maravilhas\06.Vale Verde.wav Pre-gap length 0:00:00.50 Peak level 97.7 %
Track quality 100.0 %
Test CRC 5B1E48AC
Copy CRC 5B1E48AC
Copy OK

Track 7 Filename C:\eac\OldrockerBR\Casa das Mбquinas\Lar de Maravilhas\07.Raios de Lua.wav Pre-gap length 0:00:00.50 Peak level 97.7 %
Track quality 100.0 %
Test CRC 62FB7FF1
Copy CRC 62FB7FF1
Copy OK

Track 8 Filename C:\eac\OldrockerBR\Casa das Mбquinas\Lar de Maravilhas\08.Epidemia de Rock.wav Pre-gap length 0:00:00.52 Peak level 97.7 %
Track quality 100.0 %
Test CRC 589DE6BC
Copy CRC 589DE6BC
Copy OK

Track 9 Filename C:\eac\OldrockerBR\Casa das Mбquinas\Lar de Maravilhas\09.O Sol - Reflexo Ativo.wav Pre-gap length 0:00:00.53 Peak level 97.7 %
Track quality 100.0 %
Test CRC C4BE51FE
Copy CRC C4BE51FE
Copy OK

No errors occurred

End of status report

Personnel

- Netinho / drums & percussion
- Simbas / guitars, vocals
- João Alberto / bass and vocals
- Pisca / guitars, vocals
- Marinho / piano, piano fender, minimoog

All thanks to OldrockerBR
DOWNLOAD LINKS
(Premium Recommended)


Links are Interchangeable - No Password - Single Extraction

Direct Download

Tags: quinas, Maravilhas

Casa Das Máquinas - Lar Das Maravilhas (1975) Download via Hotfile Rapidshare Fileserve Megaupload & FileSonic, Casa Das Máquinas - Lar Das Maravilhas (1975) free torrent downloads included crack, serial, keygen.


Attention!Information

Members of Guest cannot leave comments.