Carol Duboc - Colored Glasses (2015)

Download Now

Carol Duboc - Colored Glasses (2015)

Carol Duboc - Colored Glasses (2015)
EAC | FLAC | Image (Cue&Log) ~ 313 Mb (incl 5%) | Mp3 (CBR320) ~ 124 Mb (incl 5%) | Scans included
Genre: Vocal Jazz, Smooth Jazz | Label: Gold Note Music | # GNM3063 | Time: 00:41:07

"Contemporary jazz vocalist and songwriter Carol Duboc new release "Colored Glasses" is co-produced by jazz legend Jeff Lorber and featuring Grammy nominated Lorber, Jimmy Haslip, Hubert Laws and Eric Marienthal. Signatures from the band included."

""Colored Glasses" is such a captivating record that really captures a hot sound right now -- late '70s / early '80s contemporary jazz and funk -- in a way that has made artists like Pharrell very popular at the moment. But Carol Duboc's actually done him one better on this album, bringing some incredible melodies and lyrics to bear on what appears to be an impressive comeback from a challenging relationship and family situation.

Carol has surprisingly remained largely under the radar in her career, having built up serious cachet as a go-to songwriter for big artists like Tom Jones and Chante Moore. She's definitely an artist's artist and not some saloon singer with a nice look and pretty voice.

But not only does she bring serious musical chops to Colored Glasses, she also brings a tenderness and emotional clarity that puts her up there with all the great vocalists of jazz, funk and soulful R&B. Fans of Earth Wind and Fire, Sade, and even more subtle vocalists like Chet Baker or Diana Krall should immediately get this album and find themselves on the same "wavelength" (pun intended) with one of their undersung yet equally gifted peers.

She and Jeff Lorber, her co-producer, are kind of like Ella and Louis or peanut butter and jelly: they just go together so incredibly well. Especially on songs like "Wavelength" and "Hypnotic" (my favorites), they play off of each other with great chemistry and synergy to bring these songs to life.

The legendary musicians contributing to this album are a shining testament to Carol's reputation in hardcore jazz circles. Jeff Lorber, Jimmy Haslip, Paul Jackson, Jr., Vinnie Colaiuta, Hubert Laws, Eric Marienthal, and on and on.... are you kidding me?! This disc is STACKED with musical geniuses who all seem cheerful and delighted to be jamming with Carol and livening up her excellent lyrics with their musicianship.

There's a serious void right now in music from grown-up artists that appeals to EVERYONE, right on down to the twenty-somethings. Honestly, Colored Glasses fills that void in a superior and irresistible way. The title track epitomizes this in particular. "You drive a big fancy car and the weather is good no matter where you are / You're wearing a big diamond ring, and no one has to know that you're just borrowing bling / wearing Colored Glasses"... Carol has a way with lyrics that tow the line between poetry and trendiness that stick in your ears well after the disc wraps up.

Carol has really outdone herself with this album -- see the cool little viral-style video for Wavelength on YouTube if you can, btw -- and her striking yet sophisticated songwriting, plus those classic buttery jazz vocals, make this maybe her best disc yet. 5/5!

Review by snoshomish, Amazon.com
"




Tracklist:

01. Hypnotic (04:05)
02. Every Shade of Blue (03:44)
03. Celestial Skies (02:59)
04. Wavelength (03:53)
05. Breathing (05:08)
06. Trajectory (04:13)
07. Spinning (04:43)
08. Colored Glasses (04:02)
09. Walking In My Sleep (03:56)
10. Code Red (04:18)


Exact Audio Copy V1.0 beta 3 from 29. August 2011

Отчёт EAC об извлечении, выполненном 8. декабря 2015, 17:09

Carol Duboc / Colored Glasses

Дисковод: ATAPI iHAS122 C Adapter: 1 ID: 1

Режим чтения : Достоверность
Использование точного потока : Да
Отключение кэша аудио : Да
Использование указателей C2 : Нет

Коррекция смещения при чтении : 6
Способность читать области Lead-in и Lead-out : Нет
Заполнение пропущенных сэмплов тишиной : Да
Удаление блоков с тишиной в начале и конце : Нет
При вычислениях CRC использовались нулевые сэмплы : Да
Интерфейс : Встроенный Win32-интерфейс для Win NT/2000

Выходной формат : Пользовательский кодировщик
Выбранный битрейт : 768 kBit/s
Качество : Высокий
Добавление ID3-тега : Да
Утилита сжатия : E:\Exact Audio Copy\FLAC\FLAC.EXE
Дополнительные параметры : -6 -V -T "ARTIST=%artist%" -T "TITLE=%title%" -T "ALBUM=%albumtitle%" -T "DATE=%year%" -T "TRACKNUMBER=%tracknr%" -T "GENRE=%genre%" -T "COMMENT=%comment%" -T "BAND=%albuminterpret%" -T "ALBUMARTIST=%albuminterpret%" -T "COMPOSER=%composer%" %haslyrics%--tag-from-file=LYRICS="%lyricsfile%"%haslyrics% -T "DISCNUMBER=%cdnumber%" -T "TOTALDISCS=%totalcds%" -T "TOTALTRACKS=%numtracks%" %hascover%--picture="%coverfile%"%hascover% %source% -o %dest%

TOC извлечённого CD Трек | Старт | Длительность | Начальный сектор | Конечный сектор

1 | 0:00.00 | 4:05.25 | 0 | 18399
2 | 4:05.25 | 3:44.72 | 18400 | 35271
3 | 7:50.22 | 2:59.05 | 35272 | 48701
4 | 10:49.27 | 3:53.67 | 48702 | 66243
5 | 14:43.19 | 5:08.68 | 66244 | 89411
6 | 19:52.12 | 4:13.52 | 89412 | 108438
7 | 24:05.64 | 4:43.58 | 108439 | 129721
8 | 28:49.47 | 4:02.17 | 129722 | 147888
9 | 32:51.64 | 3:56.31 | 147889 | 165619
10 | 36:48.20 | 4:18.53 | 165620 | 185022

Характеристики диапазона извлечения и сообщения об ошибках

Выбранный диапазон Имя файла D:\UPLOADS-3\Carol Duboc - Colored Glasses - 2015 - 41'08''\Carol Duboc - Colored Glasses.wav Пиковый уровень 100.0 %
Скорость извлечения 7.7 X
Качество диапазона 100.0 %
CRC теста 2B757202
CRC копии 2B757202
Копирование... OK

Ошибок не произошло

Конец отчёта

==== Контрольная сумма отчёта AD21A356BC4B88FB499E75DE40DFF1FE3468C0535B6DC08BF0693CECADCC6C1A ====

foobar2000 1.3.8 / Dynamic Range Meter 1.1.1
log date: 2015-12-11 18:13:10

Analyzed: Carol Duboc / Colored Glasses

DR Peak RMS Duration Track

DR6 0.00 dB -7.70 dB 4:05 01-Hypnotic
DR7 0.00 dB -8.38 dB 3:45 02-Every Shade of Blue
DR8 0.00 dB -9.05 dB 2:59 03-Celestial Skies
DR7 0.00 dB -8.71 dB 3:54 04-Wavelength
DR8 -0.09 dB -9.86 dB 5:09 05-Breathing
DR8 0.00 dB -9.70 dB 4:14 06-Trajectory
DR8 -0.03 dB -9.29 dB 4:44 07-Spinning
DR8 -0.09 dB -9.25 dB 4:02 08-Colored Glasses
DR7 0.00 dB -8.34 dB 3:56 09-Walking In My Sleep
DR7 0.00 dB -9.16 dB 4:19 10-Code Red

Number of tracks: 10
Official DR value: DR7

Samplerate: 44100 Hz
Channels: 2
Bits per sample: 16
Bitrate: 932 kbps
Codec: FLAC

Carol Duboc - Colored Glasses (2015)

Carol Duboc - Colored Glasses (2015)

All thanks to original releaser - RedHotBlues
Password: designol

DOWNLOAD LINKS:
Buy Premium To Support Me & Get Resumable Support & Max Speed


Links are Interchangeable - No Password - Single Extraction

Direct Download

Tags: Colored, Glasses

Carol Duboc - Colored Glasses (2015) Download via Hotfile Rapidshare Fileserve Megaupload & FileSonic, Carol Duboc - Colored Glasses (2015) free torrent downloads included crack, serial, keygen.


Attention!Information

Members of Guest cannot leave comments.