MSM Schmidt - Utopia (2015) {Laika}

Download Now

MSM Schmidt - Utopia (2015) {Laika}

MSM Schmidt - Utopia (2015) {Laika}
EAC 1.0b3 | FLAC Image level 6 | Cue+Log | Full Scans 600dpi | 518MB + 5% Recovery
Genre: Fusion

"While the heart of jazz fusion may live in sunny California, USA, it is strengthened by impulses from all over the world. For 15 years and counting, lots of those have been emanating from Bremen, Germany. This city, located on the river Weser, is the birthplace and home of musician/composer Michael "MSM" Schmidt. In his day job, Schmidt works at a large insurance firm. At night, he is a passionate music composer whose works regularly make a splash in the US jazz-rock scene. His latest album - his fifth production - is entitled "Utopia""

Track List
01. Paranormal Activity 6:25
02. Qin Shi - The Face On The Wall 9:36
03. Orbit 7:34
04. LV-223 (Virtual Donati) 9:21
05. The 5th Element 7:40
06. Hymn Of The Seventh Dwarf 10:26
07. The Cosmic Swing Theory 7:57
08. Si Kitu - Mistress Of Entropy 9:28
09. Lorber's Groove 4:30

musicians
Charlie Bisharat - violin
Rick Braun - trumpet
Till Bronner - trumpet
Vinnie Colaiuta - drums
Luis Conte - percussion
Barry Danielian - trumpet
Virgil Donati - drums
Brandon Fields - soprano, alto and tenor saxophones
Nicolas Fiszman - electric bass
Mitch Forman - piano, synth
Bruce Fowler - trombone
Walt Fowler - trumpet, flugelhorn
Bob Franceschini - tenor sax
Clark Gayton - trombone
Wolfgang Haffner - drums
Jimmy Haslip - electric bass
Randy Hoexter - synths
Scott Kinsey - Fender Rhodes
Chuck Loeb - guitar
Jeff Lorber - Fender Rhodes
Eric Marienthal - alto sax
Mike Miller - guitar
Bob Mintzer - tenor sax
Oz Noy - guitar
Alan Pasqua - piano
Jeff Richman - guitar
Steve Weingart - synths
Michael Schmidt - composer, programming, synths

Produced by Mitch Forman and Jimmy Haslip

Exact Audio Copy V1.0 beta 3 from 29. August 2011

Отчёт EAC об извлечении, выполненном 8. декабря 2015, 17:59

MSM Schmidt / Utopia

Дисковод: ATAPI iHAS122 C Adapter: 1 ID: 1

Режим чтения : Достоверность
Использование точного потока : Да
Отключение кэша аудио : Да
Использование указателей C2 : Нет

Коррекция смещения при чтении : 6
Способность читать области Lead-in и Lead-out : Нет
Заполнение пропущенных сэмплов тишиной : Да
Удаление блоков с тишиной в начале и конце : Нет
При вычислениях CRC использовались нулевые сэмплы : Да
Интерфейс : Встроенный Win32-интерфейс для Win NT/2000

Выходной формат : Пользовательский кодировщик
Выбранный битрейт : 768 kBit/s
Качество : Высокий
Добавление ID3-тега : Да
Утилита сжатия : E:\Exact Audio Copy\FLAC\FLAC.EXE
Дополнительные параметры : -6 -V -T "ARTIST=%artist%" -T "TITLE=%title%" -T "ALBUM=%albumtitle%" -T "DATE=%year%" -T "TRACKNUMBER=%tracknr%" -T "GENRE=%genre%" -T "COMMENT=%comment%" -T "BAND=%albuminterpret%" -T "ALBUMARTIST=%albuminterpret%" -T "COMPOSER=%composer%" %haslyrics%--tag-from-file=LYRICS="%lyricsfile%"%haslyrics% -T "DISCNUMBER=%cdnumber%" -T "TOTALDISCS=%totalcds%" -T "TOTALTRACKS=%numtracks%" %hascover%--picture="%coverfile%"%hascover% %source% -o %dest%

TOC извлечённого CD Трек | Старт | Длительность | Начальный сектор | Конечный сектор

1 | 0:00.00 | 6:25.31 | 0 | 28905
2 | 6:25.31 | 9:36.48 | 28906 | 72153
3 | 16:02.04 | 7:34.51 | 72154 | 106254
4 | 23:36.55 | 9:21.14 | 106255 | 148343
5 | 32:57.69 | 7:40.47 | 148344 | 182890
6 | 40:38.41 | 10:26.36 | 182891 | 229876
7 | 51:05.02 | 7:57.38 | 229877 | 265689
8 | 59:02.40 | 9:28.16 | 265690 | 308305
9 | 68:30.56 | 4:30.18 | 308306 | 328573

Характеристики диапазона извлечения и сообщения об ошибках

Выбранный диапазон Имя файла D:\UPLOADS-3\MSM Schmidt - Utopia - 2015 - 73'02''\MSM Schmidt - Utopia.wav Пиковый уровень 92.2 %
Скорость извлечения 3.7 X
Качество диапазона 100.0 %
CRC теста 2A303A3B
CRC копии 2A303A3B
Копирование... OK

Ошибок не произошло

Конец отчёта

==== Контрольная сумма отчёта 554E51B2533AC9AE97D0705F141216565D79C2CDADDF55D6C3D0F5110162E9D6 ====

Analyzed: MSM Schmidt / Utopia

DR Peak RMS Duration Track

DR9 -0.70 dB -11.16 dB 6:25 01-Paranormal Activity
DR8 -0.70 dB -9.65 dB 9:37 02-Qin Shi - The Face On The Wall
DR7 -0.70 dB -9.30 dB 7:35 03-Orbit
DR7 -0.70 dB -9.65 dB 9:21 04-LV-223 (Virtual Donati)
DR8 -0.70 dB -10.44 dB 7:41 05-The 5th Element
DR7 -0.70 dB -9.17 dB 10:26 06-Hymn Of The Seventh Dwarf
DR9 -0.70 dB -11.20 dB 7:58 07-The Cosmic Swing Theory
DR7 -0.70 dB -10.03 dB 9:28 08-Si Kitu - Mistress Of Entropy
DR6 -0.70 dB -8.53 dB 4:30 09-Lorber's Groove

Number of tracks: 9
Official DR value: DR7

Samplerate: 44100 Hz
Channels: 2
Bits per sample: 16
Bitrate: 961 kbps
Codec: FLAC

MSM Schmidt - Utopia (2015) {Laika}

MSM Schmidt - Utopia (2015) {Laika}

MSM Schmidt - Utopia (2015) {Laika}

Rip by RedHotBlues


DOWNLOAD:
Buy Premium From My Links To Get Resumable Support & Max Speed & To Support Me


Links are Interchangeable - No Password

Direct Download

Tags: Schmidt, Utopia

MSM Schmidt - Utopia (2015) {Laika} Download via Hotfile Rapidshare Fileserve Megaupload & FileSonic, MSM Schmidt - Utopia (2015) {Laika} free torrent downloads included crack, serial, keygen.


Attention!Information

Members of Guest cannot leave comments.