Divinyls - Divinyls (1990)

Download Now

Divinyls - Divinyls (1990)

Divinyls - Divinyls (1990)
EAC Rip | FLAC (Img) + Cue + Log ~ 329 Mb | MP3 CBR320 ~ 115 Mb
Scans (JPG, 600 dpi) ~ 95 Mb | RAR 5% Recovery
Pop Rock, Alternative Rock | Virgin Records #2-91397

"Divinyls (stylised as diVINYLS) is the fourth studio album by Australian band Divinyls, released on 29 January 1991 by Virgin Records. The album was the band's most successful, peaking at No.5 in Australia and No.15 in the US. The album also contained the band's biggest-selling single, "I Touch Myself", which reached No.1 in Australia, No.4 in the US and No.10 in the UK. Director Michael Bay filmed a video for "I Touch Myself" in a nunnery in Pasadena. The clip was nominated for an MTV award but in their home country was banned from television..."

Wiki | Discogs | All Music
***************

Divinyls - Divinyls (1990)

Track List:

01. Make Out Alright [04:41]
02. I Touch Myself [03:48]
03. Lay Your Body Down [04:54]
04. Love School [05:26]
05. Bless My Soul (It's Rock-N-Roll) [04:03]
06. If Love Was A Gun [05:37]
07. Need A Lover [04:51]
08. Follow Through [04:45]
09. Cafe Interlude (Instrumental) [00:42]
10. Bullet [05:00]
11. I'm On Your Side [04:17]

Exact Audio Copy V1.0 beta 6 from 9. April 2015

EAC extraction logfile from 13. December 2015, 17:18

Divinyls / Divinyls

Used drive : HL-DT-STDVDRAM GH22NS40 Adapter: 1 ID: 0

Read mode : Secure
Utilize accurate stream : Yes
Defeat audio cache : Yes
Make use of C2 pointers : No

Read offset correction

: 667
Overread into Lead-In and Lead-Out : No
Fill up missing offset samples with silence : Yes
Delete leading and trailing silent blocks : No
Null samples used in CRC calculations : Yes
Used interface
: Native Win32 interface for Win NT & 2000

Used output format : User Defined Encoder
Selected bitrate : 1024 kBit/s
Quality : High
Add ID3 tag : Yes
Command line compressor : C:\Program Files\Exact Audio Copy\Flac\flac.exe
Additional command line options : -V -8 -T "Date=%year%" -T "Genre=%genre%" %source%

TOC of the extracted CD Track | Start | Length | Start sector | End sector
--1 | 0:00.50 | 4:40.42 | 50 | 21091 2 | 4:41.17 | 3:47.48 | 21092 | 38164 3 | 8:28.65 | 4:53.17 | 38165 | 60156 4 | 13:22.07 | 5:25.05 | 60157 | 84536 5 | 18:47.12 | 4:02.58 | 84537 | 102744 6 | 22:49.70 | 5:36.65 | 102745 | 128009 7 | 28:26.60 | 4:50.62 | 128010 | 149821 8 | 33:17.47 | 4:44.58 | 149822 | 171179 9 | 38:02.30 | 0:42.00 | 171180 | 174329
10 | 38:44.30 | 4:59.27 | 174330 | 196781
11 | 43:43.57 | 4:16.23 | 196782 | 216004

Range status and errors

Selected range Filename I:\Rips\Divinyls - Divinyls.wav Peak level 97.2 %
Extraction speed 1.7 X
Range quality 100.0 %
Test CRC 1996E8EB
Copy CRC 1996E8EB
Copy OK

No errors occurred


AccurateRip summary

Track 1 accurately ripped (confidence 25) FF584A9 (AR v2)
Track 2 accurately ripped (confidence 24) [FBA15926] (AR v2)
Track 3 accurately ripped (confidence 24) [8659F634] (AR v2)
Track 4 accurately ripped (confidence 24) [A8519353] (AR v2)
Track 5 accurately ripped (confidence 24) [CD47886F] (AR v2)
Track 6 accurately ripped (confidence 24) [C9B6E845] (AR v2)
Track 7 accurately ripped (confidence 24) [64CE9692] (AR v2)
Track 8 accurately ripped (confidence 24) [C12D9BAD] (AR v2)
Track 9 accurately ripped (confidence 24) [7F07F58A] (AR v2)
Track 10 accurately ripped (confidence 22) [404C7F22] (AR v2)
Track 11 accurately ripped (confidence 22) [57160F0E] (AR v2)

All tracks accurately ripped

End of status report

- CUETools DB Plugin V2.1.6

[CTDB TOCID: WF1rPsZdeSt4DOiB6bcm_YxS_D8-] found
Submit result: WF1rPsZdeSt4DOiB6bcm_YxS_D8- has been confirmed
Track | CTDB Status
1 | (14/15) Accurately ripped
2 | (15/15) Accurately ripped
3 | (15/15) Accurately ripped
4 | (15/15) Accurately ripped
5 | (15/15) Accurately ripped
6 | (15/15) Accurately ripped
7 | (15/15) Accurately ripped
8 | (15/15) Accurately ripped
9 | (15/15) Accurately ripped
10 | (15/15) Accurately ripped
11 | (15/15) Accurately ripped

==== Log checksum BB840C499D1BCEB14C098EF56F39F4986AFFC3CD5BB3E6FB3A934AF4BCB9980F ====

foobar2000 1.2.6 / Dynamic Range Meter 1.1.1
log date: 2015-12-14 00:30:29

Analyzed: Divinyls / Divinyls

DR Peak RMS Duration Track

DR14 -0.55 dB -16.48 dB 4:41 01-Make Out Alright
DR14 -0.76 dB -15.73 dB 3:48 02-I Touch Myself
DR14 -1.67 dB -17.29 dB 4:53 03-Lay Your Body Down
DR13 -1.51 dB -17.32 dB 5:25 04-Love School
DR14 -0.24 dB -15.98 dB 4:03 05-Bless My Soul (It's Rock-N-Roll)
DR12 -2.04 dB -16.78 dB 5:37 06-If Love Was A Gun
DR12 -3.27 dB -17.23 dB 4:51 07-Need A Lover
DR14 -1.39 dB -16.69 dB 4:45 08-Follow Through
DR9 -15.56 dB -30.94 dB 0:42 09-Cafe Interlude (Instrumental)
DR14 -0.98 dB -17.66 dB 4:59 10-Bullet
DR15 -0.24 dB -18.87 dB 4:16 11-I'm On Your Side

Number of tracks: 11
Official DR value: DR13

Samplerate: 44100 Hz
Channels: 2
Bits per sample: 16
Bitrate: 912 kbps
Codec: FLAC

[CUETools log; Date: 14.12.2015 0:28:47; Version: 2.1.5]
Pregap length 00:00:50.
[CTDB TOCID: WF1rPsZdeSt4DOiB6bcm_YxS_D8-] found.
Track | CTDB Status
1 | (15/16) Accurately ripped
2 | (16/16) Accurately ripped
3 | (16/16) Accurately ripped
4 | (16/16) Accurately ripped
5 | (16/16) Accurately ripped
6 | (16/16) Accurately ripped
7 | (16/16) Accurately ripped
8 | (16/16) Accurately ripped
9 | (16/16) Accurately ripped
10 | (16/16) Accurately ripped
11 | (16/16) Accurately ripped
[AccurateRip ID: 00147d9b-00b0921c-920b400b] found.
Track [ CRC | V2 ] Status
01 [f229a20b|bff584a9] (021+025/127) Accurately ripped
02 [2d9aea15|fba15926] (022+024/129) Accurately ripped
03 [6de40a82|8659f634] (023+024/128) Accurately ripped
04 [3bafbeed|a8519353] (023+024/128) Accurately ripped
05 [fb84a6cf|cd47886f] (023+024/128) Accurately ripped
06 ee07a84|c9b6e845 (023+024/128) Accurately ripped
07 [e69548d4|64ce9692] (023+024/129) Accurately ripped
08 [ed745e5f|c12d9bad] (023+024/128) Accurately ripped
09 [cfbab07e|7f07f58a] (023+024/129) Accurately ripped
10 [e5f3e7c6|404c7f22] (023+022/126) Accurately ripped
11 cf6735c|57160f0e (021+022/123) Accurately ripped
Offsetted by -287:
01 [867327fc] (013/127) Accurately ripped
02 [6ff5e16a] (013/129) Accurately ripped
03 [c4de9812] (013/128) Accurately ripped
04 [09e61ae0] (013/128) Accurately ripped
05 [3bc66795] (013/128) Accurately ripped
06 [8daa0e25] (012/128) Accurately ripped
07 [eb6678f5] (013/129) Accurately ripped
08 [4584a795] (012/128) Accurately ripped
09 [3e0a158e] (013/129) Accurately ripped
10 [c2b10062] (012/126) Accurately ripped
11 [ec367afb] (012/123) Accurately ripped
Offsetted by 49:
01 [2da5b0d1] (031/127) Accurately ripped
02 [f1234de7] (032/129) Accurately ripped
03 [2ef902fc] (031/128) Accurately ripped
04 f331e76 (031/128) Accurately ripped
05 [9bd75854] (031/128) Accurately ripped
06 [299600a9] (031/128) Accurately ripped
07 [71fa377c] (031/129) Accurately ripped
08 [1bf889ca] (031/128) Accurately ripped
09 [363b3bb5] (031/129) Accurately ripped
10 ef269c1 (031/126) Accurately ripped
11 [c541fb4c] (030/123) Accurately ripped

Track Peak [ CRC32 ] [W/O NULL] [ LOG ]
-- 97,2 [1996E8EB] [139F945D] CRC32
01 93,8 [0EA8C6D3] [8B8D9B18]
02 91,5 [49F1C7EC] [A84C5F43]
03 82,5 [FFECA838] [A52837D1]
04 84,0 [5470D231] [FDE4C622]
05 97,2 [17B926DD] [2478C9EB]
06 79,0 [68C31EA6] [0AF86D97]
07 68,6 8584B2E [0C5CB251]
08 85,1 [9E58002D] [5526E357]
09 16,6 [20591657] [47330232]
10 89,3 [52DFF5D1] [921E8500]
11 97,2 [4CCBA5D9] [D16E1CBB]

Divinyls - Divinyls (1990)

Divinyls - Divinyls (1990)

All thanks go to powermet

: | |

DOWNLOAD LINKS:


No Password

Direct Download

Tags: Divinyls, Divinyls

Divinyls - Divinyls (1990) Download via Hotfile Rapidshare Fileserve Megaupload & FileSonic, Divinyls - Divinyls (1990) free torrent downloads included crack, serial, keygen.


Attention!Information

Members of Guest cannot leave comments.