Rizwan-Muazzam Qawwali - A Better Destiny (2001)

Download Now

http://pxhst.co/avaxhome/81/b2/003ab281_medium.jpg

Rizwan-Muazzam Qawwali - A Better Destiny (2001)
EAC Rip | FLAC with CUE and log | scans | 427 mb
MP3 CBR 320kbps | RAR | 145 mb
Genre: world music, qawwali

A Better Destiny is the 2001 CD by Rizwan-Muazzam Qawwali. Released on Peter Gabriel's Real World label, this came to be following the success of the late Nusrat Fateh Ali Khan, allowing westerners to hear more vocal music from Pakistan.
1. Ay Sarwey Naz Neney Mun (10:51)
2. Chishti Balam (12:03)
3. Dil Wali Cal Karnì (9:01)
4. Nara Ya Faridv10:34)
5. Petey-Petey (10:27)
6. Qalandar Shahen Shah (10:52)


http://pxhst.co/avaxhome/83/b2/003ab283_medium.jpg


EAC Log


Exact Audio Copy V1.1 from 23. June 2015

EAC extraction logfile from 12. January 2016, 16:55

Rizwan-Muazzam Qawwali / A Better Destiny

Used drive : TEAC DVD-ROM DV-28SW Adapter: 1 ID: 0

Read mode : Secure
Utilize accurate stream : Yes
Defeat audio cache : Yes
Make use of C2 pointers : No

Read offset correction : 6
Overread into Lead-In and Lead-Out : No
Fill up missing offset samples with silence : Yes
Delete leading and trailing silent blocks : No
Null samples used in CRC calculations : Yes
Used interface : Native Win32 interface for Win NT & 2000
Gap handling : Left out

Used output format : Internal WAV Routines
Sample format : 44.100 Hz; 16 Bit; Stereo

TOC of the extracted CD

Track | Start | Length | Start sector | End sector
-----------------------------
1 | 0:00.00 | 10:52.65 | 0 | 48964
2 | 10:52.65 | 12:05.09 | 48965 | 103348
3 | 22:57.74 | 9:02.71 | 103349 | 144069
4 | 32:00.70 | 10:35.31 | 144070 | 191725
5 | 42:36.26 | 10:27.41 | 191726 | 238791
6 | 53:03.67 | 10:56.13 | 238792 | 288004

Track 1

Filename C:\My Documents\My FLAC\Rizwan-Muazzam Qawwali - A Better Destiny (2001) [FLAC]\01 - Ay Sarwey Naz Neney Mun.wav

Pre-gap length 0:00:02.00

Peak level 99.3 %
Extraction speed 3.3 X
Track quality 100.0 %
Test CRC B641F032
Copy CRC B641F032
Accurately ripped (confidence 3) [39849DF4] (AR v2)
Copy OK

Track 2

Filename C:\My Documents\My FLAC\Rizwan-Muazzam Qawwali - A Better Destiny (2001) [FLAC]\02 - Chishti Balam.wav

Peak level 99.3 %
Extraction speed 3.9 X
Track quality 100.0 %
Test CRC B136DA56
Copy CRC B136DA56
Track not fully ripped for AccurateRip lookup
Copy OK

Track 3

Filename C:\My Documents\My FLAC\Rizwan-Muazzam Qawwali - A Better Destiny (2001) [FLAC]\03 - Dil Walì Cal Karnì.wav

Pre-gap length 0:00:00.74

Peak level 99.3 %
Extraction speed 4.2 X
Track quality 100.0 %
Test CRC FD528DDE
Copy CRC FD528DDE
Track not fully ripped for AccurateRip lookup
Copy OK

Track 4

Filename C:\My Documents\My FLAC\Rizwan-Muazzam Qawwali - A Better Destiny (2001) [FLAC]\04 - Nara Ya Farid.wav

Pre-gap length 0:00:00.07

Peak level 97.0 %
Extraction speed 4.8 X
Track quality 99.9 %
Test CRC F0F2D548
Copy CRC F0F2D548
Accurately ripped (confidence 3) [FBFC47E9] (AR v2)
Copy OK

Track 5

Filename C:\My Documents\My FLAC\Rizwan-Muazzam Qawwali - A Better Destiny (2001) [FLAC]\05 - Petey-Petey.wav

Peak level 99.2 %
Extraction speed 5.6 X
Track quality 100.0 %
Test CRC EA3E3309
Copy CRC EA3E3309
Track not fully ripped for AccurateRip lookup
Copy OK

Track 6

Filename C:\My Documents\My FLAC\Rizwan-Muazzam Qawwali - A Better Destiny (2001) [FLAC]\06 - Qalandar Shahen Shah.wav

Pre-gap length 0:00:00.39

Peak level 88.5 %
Extraction speed 6.2 X
Track quality 100.0 %
Test CRC DBD9C0B6
Copy CRC DBD9C0B6
Accurately ripped (confidence 3) DDF339F (AR v2)
Copy OK

3 track(s) accurately ripped
3 track(s) not fully ripped for AccurateRip lookup

Some tracks could not be verified as accurate

No errors occurred

End of status report

==== Log checksum 8F4E4D3D7ADF9F3FC6E348CE4165AC76BA47CA88423F7E24A69017C1C0B3475C ====
Download link:



Links are Interchangeable - No Password - Single Extraction

Direct Download

Tags: Rizwan, Qawwali, Better, Destiny

Rizwan-Muazzam Qawwali - A Better Destiny (2001) Download via Hotfile Rapidshare Fileserve Megaupload & FileSonic, Rizwan-Muazzam Qawwali - A Better Destiny (2001) free torrent downloads included crack, serial, keygen.


Attention!Information

Members of Guest cannot leave comments.