Skinny Puppy - Chainsaw (1987) 160205

Download Now

Skinny Puppy - Chainsaw (1987) 160205

Skinny Puppy - Chainsaw (1987) 160205
Skinny Puppy - Chainsaw (1987)
Electronic | EP | EAC Rip | Flac + Cue + Log | covers
Nettwerk W2-6305 | rel: 1993 | 195Mb
Tis a good single: it has a better version of "Assimilate" on it, and also "Cage" is a very beautiful song (reminiscent of Skinny Puppy's tendency to mix the beautiful sounding with the ugly sounding). I will admit, while Stairs and Flowers is an all right song, I saw no need for it to be on the CD twice (it is, after all, called "Chainsaw", not "Stairs and Flowers") and "Chainsaw" seemed all right.
Overall, considering three fifths of it I loved, I'll give it four stars. ~Amazon

Track listing
01. Chainsaw (5:55)
02. Assimilate (Remix (R:23)) (6:32)
03. Cage (2:20)
04. Stairs And Flowers (Def Wish Mix) (6:05)
05. Stares And Flowers (Too Far Gone) (6:36)
~ (27:29)
Exact Audio Copy V1.0 beta 1 from 15. November 2010
EAC extraction logfile from 24. March 2011, 13:34
Skinny Puppy / Chainsaw
Used drive : LITE-ON DVDRW LH-20A1L Adapter: 4 ID: 0
Read mode : Secure
Utilize accurate stream : Yes
Defeat audio cache : Yes
Make use of C2 pointers : No
Read offset correction
: 6
Overread into Lead-In and Lead-Out : No
Fill up missing offset samples with silence : Yes
Delete leading and trailing silent blocks : No
Null samples used in CRC calculations : Yes
Used interface
: Installed external ASPI interface
Used output format : Internal WAV Routines
Sample format : 44.100 Hz; 16 Bit; Stereo
TOC of the extracted CD Track | Start | Length | Start sector | End sector
--1 | 0:00.32 | 5:55.28 | 32 | 26684 2 | 5:55.60 | 6:32.02 | 26685 | 56086 3 | 12:27.62 | 2:20.33 | 56087 | 66619 4 | 14:48.20 | 6:05.22 | 66620 | 94016 5 | 20:53.42 | 6:35.48 | 94017 | 123689
Range status and errors
Selected range Filename Z:\data\mp3\Seeding Archive\Skinny Puppy\1986-Chainsaw\chainsaw.wav Peak level 91.0 %
Extraction speed 1.7 X
Range quality 100.0 %
Test CRC 3908FA48
Copy CRC 3908FA48
Copy OK
No errors occurred
AccurateRip summary
Track 1 accurately ripped (confidence 6) [3269957A]
Track 2 accurately ripped (confidence 6) [76B30857]
Track 3 accurately ripped (confidence 7) [D6E54656]
Track 4 accurately ripped (confidence 7) D13832F
Track 5 accurately ripped (confidence 6) [FCC745CC]
All tracks accurately ripped
End of status report
[CUETools log; Date: 2015.09.21. 10:16:49; Version: 2.1.5]
Pregap length 00:00:32.
[CTDB TOCID: bj1Ry7MQKIMErEj9QZL.rACwOLo-] found.
Track | CTDB Status
1 | (4/4) Accurately ripped
2 | (4/4) Accurately ripped
3 | (4/4) Accurately ripped
4 | (4/4) Accurately ripped
5 | (4/4) Accurately ripped
[AccurateRip ID: 00059a1b-0019f210-43067105] found.
Track [ CRC | V2 ] Status
01 [3269957a|482422bb] (07+06/29) Accurately ripped
02 [76b30857|3067fc8c] (07+06/29) Accurately ripped
03 [d6e54656|c97cc3de] (08+06/30) Accurately ripped
04 d13832f|6d5dee16 (08+06/30) Accurately ripped
05 [fcc745cc|9f4c27bb] (07+06/28) Accurately ripped
Offsetted by -1474:
01 [a024b346] (03/29) Accurately ripped
02 [942e94e6] (03/29) Accurately ripped
03 [930afdcb] (03/30) Accurately ripped
04 [3689d084] (03/30) Accurately ripped
05 61d939a (03/28) Accurately ripped
Track Peak [ CRC32 ] [W/O NULL] [ LOG ]
-- 91,0 [3908FA48] 767CBE5 CRC32
01 83,2 [AE3F26E6] [EA412055]
02 82,0 [120D34D3] [C44C64ED]
03 91,0 [3D04F907] [1B2DAE20]
04 84,9 [1E868F34] [9BA9FD16]
05 85,4 [CA2BFB31] [7BD1EE66]
Buy a premium to download file with fast speed
Rapidgator.net
thanks
http://rapidgator.net/file/6366a5abe3ea18a7c72297dfff31fff1/kwfbh.S.P.C.1987.rar.html

Direct Download

Tags: Skinny, Chainsaw

Skinny Puppy - Chainsaw (1987) 160205 Download via Hotfile Rapidshare Fileserve Megaupload & FileSonic, Skinny Puppy - Chainsaw (1987) 160205 free torrent downloads included crack, serial, keygen.


Attention!Information

Members of Guest cannot leave comments.