FaderPro - Illyus & Barrientos

Download Now

FaderPro - Illyus & Barrientos

FaderPro - Illyus & Barrientos
WEBRip | English | MP4 | 2560 x 1440 | AVC ~1260 kbps | 29.970 fps
AAC 256 Kbps 48.0 KHz | 2 channels | 215 minutes | 3.06 GB
Genre: eLearning Video / Sound Processing, Music Production

The new Uncut series is a set of unique production courses with a truly behind-the-scenes feel, the Uncut courses let you get inside the DAW of the artists you love. Giving you an exclusive glimpse of their REAL, no frills workflow in the studio. See tracks get made from scratch, live and unedited. See the secret techniques professional artists employ in their day-to-day work. See the mistakes, creative choices and the happy accidents that lead to the end product of quality House, Tech House and Techno.

About Illyus & Barrientos -
In a brand new, raw and uncut Toolroom Academy tutorial direct from their studio, Illyus & Barrientos serve up their studio secrets in this exclusive course.

Already recognized as two of the most consistent House producers in the UK right now, their remixes and originals have been rocking dancefloors all over the world since they hit the scene in 2014. They've been picked as one of Pete Tong's Future Stars on BBC Radio 1, and 2017 saw them booked at bigger and bigger clubs and releasing on Suara, Defected, Cr2 and of course the mighty Toolroom Records. Now 2018 sees them setting their sights on even bigger successes, with more remixes, more releases and a huge summer ahead. Don't miss this chance to go side-by-side with them in the studio to watch and learn how they craft their signature sound.

Chapters
01: Introduction
02: Finding Loops
03: Creating Kick and Snare
04: Working on Percussion
05: Using Maschine for Drum Sounds
06: Creating a Bassline
07: Arranging the Bassline
08: Color Coding and Staying Organized
09: Arranging the Vocal Part 1
10: Arranging the Vocal Part 2
11: Arranging the Track
12: More Vocal Arrangement
13: Adding Sound FX
14: Thoughts About Arrangement and Markers
15: Working on Arrangement
16: Vocal Arrangement
17: Automation and FX
18: Continuing Arrangement
19: Dialing in the Arrangement
20: Memorable Snare Rolls
21: Adding a Melodic Filter
22: Additional Vocal Processing
23: Adding More Energy To Your Track
24: Creating a Memorable Melody
25: Effects that Work on Melody Ideas
26: Adding a Sidechain
27: Producing the Breakdown
28: Adding More Synths
29: Adding More Vocal Parts
30: Using Busses and Sends
31: Producing the Second Drop
32: Interesting Arrangement Ideas
33: Adding Elements to the Second Drop
34: Start to Mixing
35: Processing the Kick Drum
36: Mixing Percussion
37: Processing the Bassline
38: Using Sidechain In Mixing
39: Mixing the Drop Sections
40: Hi-Hat Mixing
41: Adding More Samples to the Drop
42: Pad FX
43: Adding Automation
44: Final Mixdown
45: Closing

also You can find my other useful:
https://rapu.world/search/?category_slug=&query=Sound%2BProcessing&language=&age=&author=ParRus&search=1


General
Complete name : 15_-_Beginning_Arrangement.mp4
Format : MPEG-4
Format profile : Base Media / Version 2
Codec ID : mp42 (mp42/mp41/isom/avc1)
File size : 33.6 MiB
Duration : 3 min 5 s
Overall bit rate mode : Variable
Overall bit rate : 1 521 kb/s
Encoded date : UTC 2018-01-17 03:23:36
Tagged date : UTC 2018-01-17 03:23:36

Video
ID : 1
Format : AVC
Format/Info : Advanced Video Codec
Format profile : [email protected]
Format settings : CABAC / 5 Ref Frames
Format settings, CABAC : Yes
Format settings, RefFrames : 5 frames
Codec ID : avc1
Codec ID/Info : Advanced Video Coding
Duration : 3 min 5 s
Bit rate : 1 260 kb/s
Width : 2 560 pixels
Height : 1 440 pixels
Display aspect ratio : 16:9
Frame rate mode : Constant
Frame rate : 29.970 (30000/1001) FPS
Color space : YUV
Chroma subsampling : 4:2:0
Bit depth : 8 bits
Scan type : Progressive
Bits/(Pixel*Frame) : 0.011
Stream size : 27.8 MiB (83%)
Writing library : x264 core 155 r10 b00bcaf
Encoding settings : cabac=1 / ref=5 / deblock=1:0:0 / analyse=0x3:0x113 / me=hex / subme=8 / psy=1 / psy_rd=1.00:0.00 / mixed_ref=1 / me_range=16 / chroma_me=1 / trellis=2 / 8x8dct=1 / cqm=0 / deadzone=21,11 / fast_pskip=1 / chroma_qp_offset=-2 / threads=45 / lookahead_threads=7 / sliced_threads=0 / nr=0 / decimate=1 / interlaced=0 / bluray_compat=0 / stitchable=1 / constrained_intra=0 / bframes=3 / b_pyramid=2 / b_adapt=2 / b_bias=0 / direct=3 / weightb=1 / open_gop=0 / weightp=2 / keyint=infinite / keyint_min=29 / scenecut=40 / intra_refresh=0 / rc_lookahead=50 / rc=crf / mbtree=1 / crf=20.0 / qcomp=0.60 / qpmin=5 / qpmax=69 / qpstep=4 / vbv_maxrate=13200 / vbv_bufsize=36000 / crf_max=0.0 / nal_hrd=none / filler=0 / ip_ratio=1.40 / aq=1:1.00
Encoded date : UTC 2018-01-17 03:23:36
Tagged date : UTC 2018-01-17 03:23:36
Color range : Limited
Color primaries : BT.709
Transfer characteristics : BT.709
Matrix coefficients : BT.709

Audio
ID : 2
Format : AAC
Format/Info : Advanced Audio Codec
Format profile : LC
Codec ID : mp4a-40-2
Duration : 3 min 5 s
Bit rate mode : Variable
Bit rate : 256 kb/s
Channel(s) : 2 channels
Channel positions : Front: L R
Sampling rate : 48.0 kHz
Frame rate : 46.875 FPS (1024 SPF)
Compression mode : Lossy
Stream size : 5.65 MiB (17%)
Encoded date : UTC 2018-01-17 03:23:36
Tagged date : UTC 2018-01-17 03:23:36

Screenshots


FaderPro - Illyus & Barrientos

FaderPro - Illyus & Barrientos

FaderPro - Illyus & Barrientos


Download link:

uploadgig_com:
http://uploadgig.com/file/download/75306e8d647876f5/e1y8h.FaderPro..Illyus..Barrientos.part1.rar
http://uploadgig.com/file/download/F4204af6f9A9cF6f/e1y8h.FaderPro..Illyus..Barrientos.part2.rar
http://uploadgig.com/file/download/2f1018b10afDab0E/e1y8h.FaderPro..Illyus..Barrientos.part3.rar
http://uploadgig.com/file/download/c6Ab6d1d2d5A7a59/e1y8h.FaderPro..Illyus..Barrientos.part4.rar
http://uploadgig.com/file/download/3ee398675bc9ddeC/e1y8h.FaderPro..Illyus..Barrientos.part5.rar
http://uploadgig.com/file/download/8da8d900De88cacB/e1y8h.FaderPro..Illyus..Barrientos.part6.rar
http://uploadgig.com/file/download/cf74c6f3a630E8e0/e1y8h.FaderPro..Illyus..Barrientos.part7.rar
http://uploadgig.com/file/download/03e28dE1eb2257d3/e1y8h.FaderPro..Illyus..Barrientos.part8.rar

rapidgator_net:
https://rapidgator.net/file/823ab65a4e2e6f5b962c7c907f666e5b/e1y8h.FaderPro..Illyus..Barrientos.part1.rar.html
https://rapidgator.net/file/55a36804f6894e241687b5d8a447ba3c/e1y8h.FaderPro..Illyus..Barrientos.part2.rar.html
https://rapidgator.net/file/a168ffe9711390d725a921fe3bc9951b/e1y8h.FaderPro..Illyus..Barrientos.part3.rar.html
https://rapidgator.net/file/e512c8891acb2ccd6db6b9d9b5b6c83f/e1y8h.FaderPro..Illyus..Barrientos.part4.rar.html
https://rapidgator.net/file/d534458e9db3d09ff8edd8f007bbf813/e1y8h.FaderPro..Illyus..Barrientos.part5.rar.html
https://rapidgator.net/file/b8ae510e2a3af51185326b35de8b89b0/e1y8h.FaderPro..Illyus..Barrientos.part6.rar.html
https://rapidgator.net/file/40f2195c41dc8828139939930c8e080d/e1y8h.FaderPro..Illyus..Barrientos.part7.rar.html
https://rapidgator.net/file/33c3ffc4419471431638444baaefe4df/e1y8h.FaderPro..Illyus..Barrientos.part8.rar.html

nitroflare_com:
http://nitroflare.com/view/8B04B4EC1466D7B/e1y8h.FaderPro..Illyus..Barrientos.part1.rar
http://nitroflare.com/view/6FEAD432C177193/e1y8h.FaderPro..Illyus..Barrientos.part2.rar
http://nitroflare.com/view/890ACBE330FBE7E/e1y8h.FaderPro..Illyus..Barrientos.part3.rar
http://nitroflare.com/view/00AA4152C8874F6/e1y8h.FaderPro..Illyus..Barrientos.part4.rar
http://nitroflare.com/view/52F767704E9F147/e1y8h.FaderPro..Illyus..Barrientos.part5.rar
http://nitroflare.com/view/77FCB45339484BA/e1y8h.FaderPro..Illyus..Barrientos.part6.rar
http://nitroflare.com/view/37781E2E7BF3612/e1y8h.FaderPro..Illyus..Barrientos.part7.rar
http://nitroflare.com/view/C21DDC2CF4867AC/e1y8h.FaderPro..Illyus..Barrientos.part8.rar


Links are Interchangeable - No Password - Single Extraction

Direct Download

Tags: FaderPro, Illyus, Barrientos

FaderPro - Illyus & Barrientos Download via Hotfile Rapidshare Fileserve Megaupload & FileSonic, FaderPro - Illyus & Barrientos free torrent downloads included crack, serial, keygen.


Attention!Information

Members of Guest cannot leave comments.