How To Use Hypnosis With Children & Gerald Kein

Download Now

How To Use Hypnosis With Children & Gerald Kein
How To Use Hypnosis With Children & Gerald Kein
VHSRip | English | AVI + PDF Guide | 352 x 256 | XviD ~598 kbps | 29.970 fps
MP3 | 160 Kbps | 44.1 KHz | 2 channels | 02:33:44 | 848 MB
Genre: eLearning Video / Hypnosis, Hypnotherapy

This is one of the greatest areas we can work in. Helping children to remove the blocks that may cause them pain should be everyone's goal.
You will learn the inductions and therapies that can transform a child's life!





General
Complete name : Gerald Kein - Hypnosis With Children.avi
Format : AVI
Format/Info : Audio Video Interleave
File size : 848 MiB
Duration : 2h 33mn
Overall bit rate : 771 Kbps

Video
ID : 0
Format : MPEG-4 Visual
Format settings, BVOP : Yes
Format settings, QPel : No
Format settings, GMC : No warppoints
Format settings, Matrix : Default (H.263)
Codec ID : XVID
Codec ID/Hint : XviD
Duration : 2h 33mn
Bit rate : 598 Kbps
Width : 352 pixels
Height : 256 pixels
Display aspect ratio : 1.375
Frame rate : 29.970 fps
Color space : YUV
Chroma subsampling : 4:2:0
Bit depth : 8 bits
Scan type : Progressive
Compression mode : Lossy
Bits/(Pixel*Frame) : 0.221
Stream size : 658 MiB (78%)

Audio
ID : 1
Format : MPEG Audio
Format version : Version 1
Format profile : Layer 3
Mode : Joint stereo
Mode extension : MS Stereo
Codec ID : 55
Codec ID/Hint : MP3
Duration : 2h 33mn
Bit rate mode : Constant
Bit rate : 160 Kbps
Channel(s) : 2 channels
Sampling rate : 44.1 KHz
Compression mode : Lossy
Stream size : 176 MiB (21%)
Alignment : Split accross interleaves
Interleave, duration : 26 ms (0.78 video frame)



Screenshots

How To Use Hypnosis With Children & Gerald Kein

How To Use Hypnosis With Children & Gerald Kein

How To Use Hypnosis With Children & Gerald Kein

How To Use Hypnosis With Children & Gerald Kein



Link Download:


Links are Interchangeable - No Password - Single Extraction
Extract files with WinRar Latest !

Direct Download

Tags: Hypnosis, Children, Gerald

How To Use Hypnosis With Children & Gerald Kein Download via Hotfile Rapidshare Fileserve Megaupload & FileSonic, How To Use Hypnosis With Children & Gerald Kein free torrent downloads included crack, serial, keygen.


Attention!Information

Members of Guest cannot leave comments.