Ultimate Compression Guide (2019) .

Download Now

Ultimate Compression Guide (2019) .

Ultimate Compression Guide (2019)
WEBRip | English | MP4 | 1920 x 1080 | AVC ~520 kbps | 30 fps
AAC 256 Kbps 48.0 KHz | 2 channels | ~2 hours | 959 MB
Genre: eLearning Video / Sound Processing, Music Production

Over the years, we found that compression is one of the most difficult things to learn when it comes to mixing. This is why we finally took the lead and partnered with Bob Horn, one of the most loved engineers by the Pro Studio Live audience and developed this Ultimate Guide on Compression. Learn from the hands of a professional engineer who is already mixing for some of the biggest records you hear out there.

After watching this class you will be able to understand and master compression like never before. Bob will not only explain what the controls are and how to use them, but you will develop your skills on What to Hear and How, so you can start applying these techniques to your mixes right away.

In this episode:

- Intro
- Basic Controls
- Bus Compression
- Quick note on expansion
- Quick note about knee
- Knee Example
- Comparing Plugins
- Parallel Compression
- Multiband Compression
- Electric Guitar Serial Compression
- Acoustic Guitars
- Organs
- Organ Sidechain
- EDM Sidechain
- Vocals
- Mid Side Bus Compression
- Outro

General
Complete name : 05 Basic Controls Part 4.mp4
Format : MPEG-4
Format profile : Base Media / Version 2
Codec ID : mp42 (mp42/mp41/isom/avc1)
File size : 27.0 MiB
Duration : 4 min 50 s
Overall bit rate mode : Variable
Overall bit rate : 780 kb/s
Encoded date : UTC 2017-10-31 23:41:59
Tagged date : UTC 2017-10-31 23:41:59

Video
ID : 1
Format : AVC
Format/Info : Advanced Video Codec
Format profile : [email protected]
Format settings : CABAC / 4 Ref Frames
Format settings, CABAC : Yes
Format settings, RefFrames : 4 frames
Codec ID : avc1
Codec ID/Info : Advanced Video Coding
Duration : 4 min 50 s
Bit rate : 520 kb/s
Width : 1 920 pixels
Height : 1 080 pixels
Display aspect ratio : 16:9
Frame rate mode : Constant
Frame rate : 30.000 FPS
Color space : YUV
Chroma subsampling : 4:2:0
Bit depth : 8 bits
Scan type : Progressive
Bits/(Pixel*Frame) : 0.008
Stream size : 18.0 MiB (67%)
Writing library : x264 core 152 r10 ba24899
Encoding settings : cabac=1 / ref=4 / deblock=1:0:0 / analyse=0x3:0x113 / me=hex / subme=8 / psy=1 / psy_rd=1.00:0.00 / mixed_ref=1 / me_range=16 / chroma_me=1 / trellis=2 / 8x8dct=1 / cqm=0 / deadzone=21,11 / fast_pskip=1 / chroma_qp_offset=-2 / threads=34 / lookahead_threads=5 / sliced_threads=0 / nr=0 / decimate=1 / interlaced=0 / bluray_compat=0 / stitchable=1 / constrained_intra=0 / bframes=3 / b_pyramid=2 / b_adapt=2 / b_bias=0 / direct=3 / weightb=1 / open_gop=0 / weightp=2 / keyint=infinite / keyint_min=30 / scenecut=40 / intra_refresh=0 / rc_lookahead=50 / rc=crf / mbtree=1 / crf=20.0 / qcomp=0.60 / qpmin=5 / qpmax=69 / qpstep=4 / vbv_maxrate=5500 / vbv_bufsize=15000 / crf_max=0.0 / nal_hrd=none / filler=0 / ip_ratio=1.40 / aq=1:1.00
Encoded date : UTC 2017-10-31 23:41:59
Tagged date : UTC 2017-10-31 23:41:59
Color range : Limited
Color primaries : BT.709
Transfer characteristics : BT.709
Matrix coefficients : BT.709

Audio
ID : 2
Format : AAC
Format/Info : Advanced Audio Codec
Format profile : LC
Codec ID : mp4a-40-2
Duration : 4 min 50 s
Bit rate mode : Variable
Bit rate : 256 kb/s
Channel(s) : 2 channels
Channel positions : Front: L R
Sampling rate : 48.0 kHz
Frame rate : 46.875 FPS (1024 SPF)
Compression mode : Lossy
Stream size : 8.87 MiB (33%)
Encoded date : UTC 2017-10-31 23:41:59
Tagged date : UTC 2017-10-31 23:41:59

Screenshots


Ultimate Compression Guide (2019) .

Ultimate Compression Guide (2019) .

Ultimate Compression Guide (2019) .


Download link:

uploadgig_com:
https://uploadgig.com/file/download/e4428Dbf7ec16879/3ntoa.Ultimate.Compression.Guide.2019.part01.rar
https://uploadgig.com/file/download/5f524f5f3cF33ddC/3ntoa.Ultimate.Compression.Guide.2019.part02.rar
https://uploadgig.com/file/download/dbfdF67Dc78c93fa/3ntoa.Ultimate.Compression.Guide.2019.part03.rar
https://uploadgig.com/file/download/5524b05C692903d7/3ntoa.Ultimate.Compression.Guide.2019.part04.rar
https://uploadgig.com/file/download/0d2Bc9cd80156869/3ntoa.Ultimate.Compression.Guide.2019.part05.rar
https://uploadgig.com/file/download/304dEac2C22067eE/3ntoa.Ultimate.Compression.Guide.2019.part06.rar
https://uploadgig.com/file/download/251ffd817C986fFe/3ntoa.Ultimate.Compression.Guide.2019.part07.rar
https://uploadgig.com/file/download/af04c8bab4B8522C/3ntoa.Ultimate.Compression.Guide.2019.part08.rar
https://uploadgig.com/file/download/49dD81fe14ccf0c6/3ntoa.Ultimate.Compression.Guide.2019.part09.rar
https://uploadgig.com/file/download/4e34cd1ac3ACf1b0/3ntoa.Ultimate.Compression.Guide.2019.part10.rar

rapidgator_net:
https://rapidgator.net/file/294c28397d7f0cb662d6d3e991b370a3/3ntoa.Ultimate.Compression.Guide.2019.part01.rar.html
https://rapidgator.net/file/72b6a8dae55337bc08d24870f51b9f5a/3ntoa.Ultimate.Compression.Guide.2019.part02.rar.html
https://rapidgator.net/file/9b06f4718408b52b3afe493eb20f3441/3ntoa.Ultimate.Compression.Guide.2019.part03.rar.html
https://rapidgator.net/file/fe4e4d0d183e374859d7dd4a454bd312/3ntoa.Ultimate.Compression.Guide.2019.part04.rar.html
https://rapidgator.net/file/7ea39d2eafd5afe11249fcf9144b3904/3ntoa.Ultimate.Compression.Guide.2019.part05.rar.html
https://rapidgator.net/file/86529ff080c99ba3f264de68377f7f62/3ntoa.Ultimate.Compression.Guide.2019.part06.rar.html
https://rapidgator.net/file/e12d6894e1c90bc916c85bedb9365b0b/3ntoa.Ultimate.Compression.Guide.2019.part07.rar.html
https://rapidgator.net/file/62c48ad4bfb640eebe53f68c63d2d125/3ntoa.Ultimate.Compression.Guide.2019.part08.rar.html
https://rapidgator.net/file/85a55ae866199b8b710c2004b79252cc/3ntoa.Ultimate.Compression.Guide.2019.part09.rar.html
https://rapidgator.net/file/dd4c8c63fa90595eb581fd8c57019c04/3ntoa.Ultimate.Compression.Guide.2019.part10.rar.html

nitroflare_com:
http://nitroflare.com/view/225D74C96E1ABE4/3ntoa.Ultimate.Compression.Guide.2019.part01.rar
http://nitroflare.com/view/6DC8622B452593B/3ntoa.Ultimate.Compression.Guide.2019.part02.rar
http://nitroflare.com/view/4C026B2C96CF894/3ntoa.Ultimate.Compression.Guide.2019.part03.rar
http://nitroflare.com/view/8CD2DA689C3F99D/3ntoa.Ultimate.Compression.Guide.2019.part04.rar
http://nitroflare.com/view/EAE48B771F580FF/3ntoa.Ultimate.Compression.Guide.2019.part05.rar
http://nitroflare.com/view/859A8AE8B544D80/3ntoa.Ultimate.Compression.Guide.2019.part06.rar
http://nitroflare.com/view/3B01A7315CFB2B6/3ntoa.Ultimate.Compression.Guide.2019.part07.rar
http://nitroflare.com/view/EF5D7ECF7B432ED/3ntoa.Ultimate.Compression.Guide.2019.part08.rar
http://nitroflare.com/view/7C3C9EFB3C141F7/3ntoa.Ultimate.Compression.Guide.2019.part09.rar
http://nitroflare.com/view/DB19C2CFA11D187/3ntoa.Ultimate.Compression.Guide.2019.part10.rar


Links are Interchangeable - No Password - Single Extraction

Direct Download

Tags: Ultimate, Compression

Ultimate Compression Guide (2019) . Download via Hotfile Rapidshare Fileserve Megaupload & FileSonic, Ultimate Compression Guide (2019) . free torrent downloads included crack, serial, keygen.


Attention!Information

Members of Guest cannot leave comments.