Email Marketing Guide Massive List Building For Success .

Download Now

Email Marketing Guide Massive List Building For Success .

Email Marketing Guide Massive List Building For Success
WEBRip | English | MP4 | 1280 x 720 | AVC ~3000 Kbps | 30 fps
AAC | 128 Kbps | 44.1 KHz | 2 channels | ~2 hours | 1.23 GB
Genre: eLearning Video / Business, Sales, Marketing

While many have decried that Email Marketing is dead, a handful of digital marketers have quietly been using little-known email marketing techniques to generate massive results with list buiding.

In this ultimate Email Marketing Course for beginners and all levels i reveal you the Email Marketing strategies and techniques that TOP email marketers are currently using to build large mailing lists, write compelling copy that converts and generate millions in revenue using their email lists.

You will learn the techniques that are working right now to allow professionals and small businesses to connect with potential clients, build trust-based relationships and generate more sales through email.

Inside the course, you'll learn how to:

Build a massive mailing list using different proven list building techniques.

The Customer Insight Mapping technique for building deep understanding of what your clients need and what will motivate them to buy from you.

Surefire secret models that will get your emails opened and read

The "optin formula" for getting the right people to subscribe to your emails (and how to accelerate the growth of your subscriber list).

How to engage AND persuade with your emails writing compelling copy that engages your readers and drives them to take action, so that you build a loyal 'fan base' ready to buy from you.
The advanced techniques for turning email subscribers into paying clients
Optimize every step of your email marketing funnel to skyrocket your sales.
Create every time new revenue streams for your business using email marketing.

I have organically grown an email list of more than 1000 investors and generates more than $500k per year in revenue using the strategies outlined in this course.

Regardless of what kind of business you are building, email marketing can serve as the rocket fuel that that will skyrocket your business.

This course lays out a clear blueprint for building an engaged subscriber base, building credibility and trust through your emails and converting your subscribers into paying clients.

No jargon. No fluff. Just practical, real-world strategies that deliver results.

If you want to get results fast and begin growing your business today through the power of email marketing then you just need to put in action what you will learn in this course. So, scroll up and ENROLL today!

also You can find my other helpful
https://rapu.world/search/?category_slug=&query=Business&language=&age=year&author=ParRus&search=1


General
Complete name : 3. How To Create A Follow Up Series In Aweber.mp4
Format : MPEG-4
Format profile : Base Media
Codec ID : isom (isom/iso2/avc1/mp41)
File size : 25.6 MiB
Duration : 4 min 42 s
Overall bit rate : 759 kb/s
Writing application : Lavf58.12.100

Video
ID : 1
Format : AVC
Format/Info : Advanced Video Codec
Format profile : [email protected]
Format settings : CABAC / 4 Ref Frames
Format settings, CABAC : Yes
Format settings, RefFrames : 4 frames
Format settings, GOP : M=4, N=60
Codec ID : avc1
Codec ID/Info : Advanced Video Coding
Duration : 4 min 42 s
Bit rate : 623 kb/s
Nominal bit rate : 3 000 kb/s
Width : 1 280 pixels
Height : 720 pixels
Display aspect ratio : 16:9
Frame rate mode : Constant
Frame rate : 30.000 FPS
Color space : YUV
Chroma subsampling : 4:2:0
Bit depth : 8 bits
Scan type : Progressive
Bits/(Pixel*Frame) : 0.023
Stream size : 21.0 MiB (82%)
Writing library : x264 core 148
Encoding settings : cabac=1 / ref=3 / deblock=1:-1:-1 / analyse=0x1:0x111 / me=umh / subme=6 / psy=1 / psy_rd=1.00:0.15 / mixed_ref=1 / me_range=16 / chroma_me=1 / trellis=1 / 8x8dct=0 / cqm=0 / deadzone=21,11 / fast_pskip=1 / chroma_qp_offset=-3 / threads=22 / lookahead_threads=3 / sliced_threads=0 / nr=0 / decimate=1 / interlaced=0 / bluray_compat=0 / constrained_intra=0 / bframes=3 / b_pyramid=2 / b_adapt=1 / b_bias=0 / direct=1 / weightb=1 / open_gop=0 / weightp=2 / keyint=60 / keyint_min=6 / scenecut=0 / intra_refresh=0 / rc_lookahead=60 / rc=cbr / mbtree=1 / bitrate=3000 / ratetol=1.0 / qcomp=0.60 / qpmin=0 / qpmax=69 / qpstep=4 / vbv_maxrate=3000 / vbv_bufsize=6000 / nal_hrd=none / filler=0 / ip_ratio=1.40 / aq=1:1.00

Audio
ID : 2
Format : AAC
Format/Info : Advanced Audio Codec
Format profile : LC
Codec ID : mp4a-40-2
Duration : 4 min 42 s
Bit rate mode : Constant
Bit rate : 128 kb/s
Channel(s) : 2 channels
Channel positions : Front: L R
Sampling rate : 44.1 kHz
Frame rate : 43.066 FPS (1024 SPF)
Compression mode : Lossy
Stream size : 4.31 MiB (17%)
Default : Yes
Alternate group : 1

Screenshots


Email Marketing Guide Massive List Building For Success .

Email Marketing Guide Massive List Building For Success .

Email Marketing Guide Massive List Building For Success .


Download link:

uploadgig_com:
https://uploadgig.com/file/download/523ae46261b1220c/nwjbm.Email.Marketing.Guide.Massive.List.Building.For.Success.part1.rar
https://uploadgig.com/file/download/11829e0394c2147d/nwjbm.Email.Marketing.Guide.Massive.List.Building.For.Success.part2.rar
https://uploadgig.com/file/download/Fefc11E0f841ebBc/nwjbm.Email.Marketing.Guide.Massive.List.Building.For.Success.part3.rar
https://uploadgig.com/file/download/ef7A48910720A3c8/nwjbm.Email.Marketing.Guide.Massive.List.Building.For.Success.part4.rar
https://uploadgig.com/file/download/be2d4C1eca50926c/nwjbm.Email.Marketing.Guide.Massive.List.Building.For.Success.part5.rar
https://uploadgig.com/file/download/dcBc8f2e3aa8917C/nwjbm.Email.Marketing.Guide.Massive.List.Building.For.Success.part6.rar
https://uploadgig.com/file/download/2254633cCdec2859/nwjbm.Email.Marketing.Guide.Massive.List.Building.For.Success.part7.rar

rapidgator_net:
https://rapidgator.net/file/da2febea3ac30d30098bd42aa9088ea6/nwjbm.Email.Marketing.Guide.Massive.List.Building.For.Success.part1.rar.html
https://rapidgator.net/file/9196288155f537c3eb83f83bd108a6b6/nwjbm.Email.Marketing.Guide.Massive.List.Building.For.Success.part2.rar.html
https://rapidgator.net/file/bf529c49c9645851cfa357fb845871f0/nwjbm.Email.Marketing.Guide.Massive.List.Building.For.Success.part3.rar.html
https://rapidgator.net/file/a66b9587bdfeca9481b62b2f5f6229ba/nwjbm.Email.Marketing.Guide.Massive.List.Building.For.Success.part4.rar.html
https://rapidgator.net/file/abfdc4484be2a2b25b0025ce167c39b6/nwjbm.Email.Marketing.Guide.Massive.List.Building.For.Success.part5.rar.html
https://rapidgator.net/file/96a18980f1553271173eec5e6e55c1e0/nwjbm.Email.Marketing.Guide.Massive.List.Building.For.Success.part6.rar.html
https://rapidgator.net/file/75b570e049e8accf366a1b74edbe8108/nwjbm.Email.Marketing.Guide.Massive.List.Building.For.Success.part7.rar.html

nitroflare_com:
http://nitroflare.com/view/6F58726DEB7B6A6/nwjbm.Email.Marketing.Guide.Massive.List.Building.For.Success.part1.rar
http://nitroflare.com/view/E0AC666EB18477D/nwjbm.Email.Marketing.Guide.Massive.List.Building.For.Success.part2.rar
http://nitroflare.com/view/FF1699314171737/nwjbm.Email.Marketing.Guide.Massive.List.Building.For.Success.part3.rar
http://nitroflare.com/view/FB6CED65C709B1A/nwjbm.Email.Marketing.Guide.Massive.List.Building.For.Success.part4.rar
http://nitroflare.com/view/F7C567366E170D3/nwjbm.Email.Marketing.Guide.Massive.List.Building.For.Success.part5.rar
http://nitroflare.com/view/5D79AA6AE4C5285/nwjbm.Email.Marketing.Guide.Massive.List.Building.For.Success.part6.rar
http://nitroflare.com/view/2528BC3C492034C/nwjbm.Email.Marketing.Guide.Massive.List.Building.For.Success.part7.rar


Links are Interchangeable - No Password - Single Extraction

Direct Download

Tags: Marketing, Massive, Building, Success

Email Marketing Guide Massive List Building For Success . Download via Hotfile Rapidshare Fileserve Megaupload & FileSonic, Email Marketing Guide Massive List Building For Success . free torrent downloads included crack, serial, keygen.


Attention!Information

Members of Guest cannot leave comments.