Sales Mastery Sell More and Better. Complete Sales Training (2019) .

Download Now

Sales Mastery Sell More and Better. Complete Sales Training (2019) .

Sales Mastery: Sell More and Better. Complete Sales Training (2019)
WEBRip | English | MP4 | 1280 x 720 | AVC ~2106 Kbps | 30 fps
AAC | 128 Kbps | 48.0 KHz | 2 channels | 41 minutes | 656 MB
Genre: eLearning Video / Business, Sales, Marketing

Sales Mastery: Proven sales strategies to overcome objections & close any sale. Learn sales secrets & sales techniques

Welcome to Sales Skills: Complete Sales Training

In this course i'm going to teach you how to unfold your sales scenario in a structured and efficient way so that the sales process moves smoothly from the initial stage up to the final stage in a consistent manner.

I will provide you with a series of methods strategies and techniques that you can use immediately to make more sales faster and easier than ever before. I'm gonna break down every step of the selling process and deliver step-by-step strategies and practical methods that you can implement right away and get immediate results.

You will embark on an exciting journey that will transform your ordinary sales job into a successful stable and fulfilling career. Whether you're new to the sales business or have worked in sales before you'll find all the motivation and guidance you need to skyrocket your sales and get more customers.

Who this course is for:
Sales people in any sector
Sales experts who are changing industries
Any person who wants to sell anything

What you'll learn
Maximize your selling probabilities
How to understand the customer
The 7 steps to selling anything
How to overcome objections
The 7 most powerful closing techniques
How to close the sale

General
Complete name : 7. How To Overcome Objections.mp4
Format : MPEG-4
Format profile : Base Media
Codec ID : isom (isom/iso2/avc1/mp41)
File size : 106 MiB
Duration : 6 min 35 s
Overall bit rate : 2 243 kb/s
Writing application : Lavf58.12.100

Video
ID : 1
Format : AVC
Format/Info : Advanced Video Codec
Format profile : [email protected]
Format settings : CABAC / 4 Ref Frames
Format settings, CABAC : Yes
Format settings, RefFrames : 4 frames
Codec ID : avc1
Codec ID/Info : Advanced Video Coding
Duration : 6 min 35 s
Bit rate : 2 106 kb/s
Nominal bit rate : 3 000 kb/s
Width : 1 280 pixels
Height : 720 pixels
Display aspect ratio : 16:9
Frame rate mode : Constant
Frame rate : 30.000 FPS
Color space : YUV
Chroma subsampling : 4:2:0
Bit depth : 8 bits
Scan type : Progressive
Bits/(Pixel*Frame) : 0.076
Stream size : 99.3 MiB (94%)
Writing library : x264 core 148
Encoding settings : cabac=1 / ref=3 / deblock=1:-1:-1 / analyse=0x1:0x111 / me=umh / subme=6 / psy=1 / psy_rd=1.00:0.15 / mixed_ref=1 / me_range=16 / chroma_me=1 / trellis=1 / 8x8dct=0 / cqm=0 / deadzone=21,11 / fast_pskip=1 / chroma_qp_offset=-3 / threads=22 / lookahead_threads=3 / sliced_threads=0 / nr=0 / decimate=1 / interlaced=0 / bluray_compat=0 / constrained_intra=0 / bframes=3 / b_pyramid=2 / b_adapt=1 / b_bias=0 / direct=1 / weightb=1 / open_gop=0 / weightp=2 / keyint=60 / keyint_min=6 / scenecut=0 / intra_refresh=0 / rc_lookahead=60 / rc=cbr / mbtree=1 / bitrate=3000 / ratetol=1.0 / qcomp=0.60 / qpmin=0 / qpmax=69 / qpstep=4 / vbv_maxrate=3000 / vbv_bufsize=6000 / nal_hrd=none / filler=0 / ip_ratio=1.40 / aq=1:1.00

Audio
ID : 2
Format : AAC
Format/Info : Advanced Audio Codec
Format profile : LC
Codec ID : mp4a-40-2
Duration : 6 min 35 s
Bit rate mode : Constant
Bit rate : 128 kb/s
Channel(s) : 2 channels
Channel positions : Front: L R
Sampling rate : 48.0 kHz
Frame rate : 46.875 FPS (1024 SPF)
Compression mode : Lossy
Stream size : 6.03 MiB (6%)
Default : Yes
Alternate group : 1

Screenshots


Sales Mastery Sell More and Better. Complete Sales Training (2019) .

Sales Mastery Sell More and Better. Complete Sales Training (2019) .

Sales Mastery Sell More and Better. Complete Sales Training (2019) .


Download link:

uploadgig_com:
https://uploadgig.com/file/download/8Cd95b83a85e4344/r5sd5.Sales.Mastery.Sell.More.and.Better..Complete.Sales.Training.2019.part1.rar
https://uploadgig.com/file/download/d3638137a4830E9e/r5sd5.Sales.Mastery.Sell.More.and.Better..Complete.Sales.Training.2019.part2.rar
https://uploadgig.com/file/download/c0EC500Dc1dAb3d2/r5sd5.Sales.Mastery.Sell.More.and.Better..Complete.Sales.Training.2019.part3.rar
https://uploadgig.com/file/download/815b0a8a6a759036/r5sd5.Sales.Mastery.Sell.More.and.Better..Complete.Sales.Training.2019.part4.rar
https://uploadgig.com/file/download/Feca47e458db898d/r5sd5.Sales.Mastery.Sell.More.and.Better..Complete.Sales.Training.2019.part5.rar
https://uploadgig.com/file/download/e02Fc0AFd8d3d31b/r5sd5.Sales.Mastery.Sell.More.and.Better..Complete.Sales.Training.2019.part6.rar
https://uploadgig.com/file/download/87e5fA771698d8bC/r5sd5.Sales.Mastery.Sell.More.and.Better..Complete.Sales.Training.2019.part7.rar

rapidgator_net:
https://rapidgator.net/file/b5caa96b52841b63518e5e79b9306362/r5sd5.Sales.Mastery.Sell.More.and.Better..Complete.Sales.Training.2019.part1.rar.html
https://rapidgator.net/file/4a5a4f625b0f103680368fae2b9fe951/r5sd5.Sales.Mastery.Sell.More.and.Better..Complete.Sales.Training.2019.part2.rar.html
https://rapidgator.net/file/195c239664976b30bd71c4a4ab953cb7/r5sd5.Sales.Mastery.Sell.More.and.Better..Complete.Sales.Training.2019.part3.rar.html
https://rapidgator.net/file/fe383f83a810c52bfea48378a6ec6722/r5sd5.Sales.Mastery.Sell.More.and.Better..Complete.Sales.Training.2019.part4.rar.html
https://rapidgator.net/file/af972b3a969daa3e437584e70805dc3e/r5sd5.Sales.Mastery.Sell.More.and.Better..Complete.Sales.Training.2019.part5.rar.html
https://rapidgator.net/file/d2f141a4e17f612d30a6bea3521a1384/r5sd5.Sales.Mastery.Sell.More.and.Better..Complete.Sales.Training.2019.part6.rar.html
https://rapidgator.net/file/1a5df582d4bb90402bb6eb346090d1dd/r5sd5.Sales.Mastery.Sell.More.and.Better..Complete.Sales.Training.2019.part7.rar.html

nitroflare_com:
http://nitroflare.com/view/3607D07A1AE73CB/r5sd5.Sales.Mastery.Sell.More.and.Better..Complete.Sales.Training.2019.part1.rar
http://nitroflare.com/view/69EEDAA2A85693E/r5sd5.Sales.Mastery.Sell.More.and.Better..Complete.Sales.Training.2019.part2.rar
http://nitroflare.com/view/7C6EF41C2D56E48/r5sd5.Sales.Mastery.Sell.More.and.Better..Complete.Sales.Training.2019.part3.rar
http://nitroflare.com/view/0BE2DAA39AD4A99/r5sd5.Sales.Mastery.Sell.More.and.Better..Complete.Sales.Training.2019.part4.rar
http://nitroflare.com/view/DA3D7B742285C60/r5sd5.Sales.Mastery.Sell.More.and.Better..Complete.Sales.Training.2019.part5.rar
http://nitroflare.com/view/A7DA4A21DCD057C/r5sd5.Sales.Mastery.Sell.More.and.Better..Complete.Sales.Training.2019.part6.rar
http://nitroflare.com/view/1E6AEA6B561631F/r5sd5.Sales.Mastery.Sell.More.and.Better..Complete.Sales.Training.2019.part7.rar


Links are Interchangeable - No Password - Single Extraction

Direct Download

Tags: Mastery, Better, Complete, Training

Sales Mastery Sell More and Better. Complete Sales Training (2019) . Download via Hotfile Rapidshare Fileserve Megaupload & FileSonic, Sales Mastery Sell More and Better. Complete Sales Training (2019) . free torrent downloads included crack, serial, keygen.


Attention!Information

Members of Guest cannot leave comments.