Hard Rock Mixing Session (2019) .

Download Now

Hard Rock Mixing Session (2019) .

Hard Rock Mixing Session (2019)
WEBRip | English | MP4 | 1920 x 1080 | AVC ~3309 kbps | 29.970 fps
AAC 256 Kbps 48.0 KHz | 2 channels | 03:23:13 | 5.19 GB
Genre: eLearning Video / Sound Processing, Music Production
Award-winning engineer Chris Baseford (Rob Zombie, Nickelback, Avril Lavigne) shares his mixing secrets on this tell-all episode of Pro Studio Live.


Chris Baseford, award winning engineer hailing from Canada, is here to share his Hard Rock mixing expertise! With past clients that include Rob Zombie, John 5 and Nickelback, this man knows the ins-and-outs of Hard Rock production and he shares all of it with Pro Studio Live. For this event Chris brought with him a mix session that he did for the Hard Rock band Burn the Headlines.

In this session he breaks down how he's set up his routing to resemble an analog SSL Mixing Console, how he uses specific tools like compression, equalization, and reverb to enhance different parts of an instrument as well as sharing an awesome trick that utilizes the multi-mono functionality of some plugins to help keep his organization locked in! He also takes time to answer some general engineering questions that our viewers had for him. Watch this event and learn how Chris creates his powerful productions that have helped define the Hard Rock genre.

General
Complete name : Episode 2.mp4
Format : MPEG-4
Format profile : Base Media / Version 2
Codec ID : mp42 (mp42/mp41/isom/avc1)
File size : 1.23 GiB
Duration : 49 min 19 s
Overall bit rate mode : Variable
Overall bit rate : 3 569 kb/s
Encoded date : UTC 2015-06-17 05:04:11
Tagged date : UTC 2015-06-17 05:04:11

Video
ID : 1
Format : AVC
Format/Info : Advanced Video Codec
Format profile : [email protected]
Format settings : CABAC / 4 Ref Frames
Format settings, CABAC : Yes
Format settings, RefFrames : 4 frames
Codec ID : avc1
Codec ID/Info : Advanced Video Coding
Duration : 49 min 19 s
Bit rate : 3 309 kb/s
Width : 1 920 pixels
Height : 1 080 pixels
Display aspect ratio : 16:9
Frame rate mode : Constant
Frame rate : 29.970 (30000/1001) FPS
Color space : YUV
Chroma subsampling : 4:2:0
Bit depth : 8 bits
Scan type : Progressive
Bits/(Pixel*Frame) : 0.053
Stream size : 1.14 GiB (93%)
Writing library : x264 core 146 r16 121396c
Encoding settings : cabac=1 / ref=3 / deblock=1:0:0 / analyse=0x3:0x113 / me=hex / subme=7 / psy=1 / psy_rd=1.00:0.00 / mixed_ref=1 / me_range=16 / chroma_me=1 / trellis=1 / 8x8dct=1 / cqm=0 / deadzone=21,11 / fast_pskip=1 / chroma_qp_offset=-2 / threads=84 / lookahead_threads=8 / sliced_threads=0 / nr=0 / decimate=1 / interlaced=0 / bluray_compat=0 / stitchable=1 / constrained_intra=0 / bframes=3 / b_pyramid=2 / b_adapt=1 / b_bias=0 / direct=1 / weightb=1 / open_gop=0 / weightp=2 / keyint=infinite / keyint_min=29 / scenecut=40 / intra_refresh=0 / rc_lookahead=40 / rc=crf / mbtree=1 / crf=20.0 / qcomp=0.60 / qpmin=5 / qpmax=69 / qpstep=4 / vbv_maxrate=4950 / vbv_bufsize=13500 / crf_max=0.0 / nal_hrd=none / filler=0 / ip_ratio=1.40 / aq=1:1.00
Encoded date : UTC 2015-06-17 05:04:11
Tagged date : UTC 2015-06-17 05:04:11
Color range : Limited
Color primaries : BT.709
Transfer characteristics : BT.709
Matrix coefficients : BT.709

Audio
ID : 2
Format : AAC
Format/Info : Advanced Audio Codec
Format profile : LC
Codec ID : mp4a-40-2
Duration : 49 min 19 s
Bit rate mode : Variable
Bit rate : 256 kb/s
Channel(s) : 2 channels
Channel positions : Front: L R
Sampling rate : 48.0 kHz
Frame rate : 46.875 FPS (1024 SPF)
Compression mode : Lossy
Stream size : 90.3 MiB (7%)
Encoded date : UTC 2015-06-17 05:04:11
Tagged date : UTC 2015-06-17 05:04:11

Screenshots


Hard Rock Mixing Session (2019) .

Hard Rock Mixing Session (2019) .

Hard Rock Mixing Session (2019) .


Download link:

uploadgig_com:
https://uploadgig.com/file/download/710c248BE052cDcB/v8cvc.Hard.Rock.Mixing.Session.2019.part1.rar
https://uploadgig.com/file/download/0ecBEC0fc5c83faa/v8cvc.Hard.Rock.Mixing.Session.2019.part2.rar
https://uploadgig.com/file/download/A63c7da9De27a531/v8cvc.Hard.Rock.Mixing.Session.2019.part3.rar
https://uploadgig.com/file/download/29f5a41245A9e18f/v8cvc.Hard.Rock.Mixing.Session.2019.part4.rar
https://uploadgig.com/file/download/07bE62a35E3136Ae/v8cvc.Hard.Rock.Mixing.Session.2019.part5.rar
https://uploadgig.com/file/download/f34eadD99dcaF9e6/v8cvc.Hard.Rock.Mixing.Session.2019.part6.rar
https://uploadgig.com/file/download/663E54a3dcA9a679/v8cvc.Hard.Rock.Mixing.Session.2019.part7.rar
https://uploadgig.com/file/download/54b46c9f746F185C/v8cvc.Hard.Rock.Mixing.Session.2019.part8.rar

rapidgator_net:
https://rapidgator.net/file/430f508ff54e3502e997bbcea19e4108/v8cvc.Hard.Rock.Mixing.Session.2019.part1.rar.html
https://rapidgator.net/file/ac69c8e5dcdcdba44ef836c2963584ce/v8cvc.Hard.Rock.Mixing.Session.2019.part2.rar.html
https://rapidgator.net/file/9d628e67f7c9a373795bfc59f15b41d2/v8cvc.Hard.Rock.Mixing.Session.2019.part3.rar.html
https://rapidgator.net/file/95dae3d117ff0c8f573cdb54ebb8ff27/v8cvc.Hard.Rock.Mixing.Session.2019.part4.rar.html
https://rapidgator.net/file/0ec1e37f4c6018a716d372e36c0d0033/v8cvc.Hard.Rock.Mixing.Session.2019.part5.rar.html
https://rapidgator.net/file/1cb1498960769fbffc4b25c10824a7d5/v8cvc.Hard.Rock.Mixing.Session.2019.part6.rar.html
https://rapidgator.net/file/3b32bf786c5bcb8f0e6ed28b477b479f/v8cvc.Hard.Rock.Mixing.Session.2019.part7.rar.html
https://rapidgator.net/file/19cb393def6cc5947c153877677aad80/v8cvc.Hard.Rock.Mixing.Session.2019.part8.rar.html

nitroflare_com:
http://nitroflare.com/view/59568EEB5EA37C8/v8cvc.Hard.Rock.Mixing.Session.2019.part1.rar
http://nitroflare.com/view/6747E6083BFBDE8/v8cvc.Hard.Rock.Mixing.Session.2019.part2.rar
http://nitroflare.com/view/8AE7851FAA71F8C/v8cvc.Hard.Rock.Mixing.Session.2019.part3.rar
http://nitroflare.com/view/C85A8D58EE4B92D/v8cvc.Hard.Rock.Mixing.Session.2019.part4.rar
http://nitroflare.com/view/2597BB474163116/v8cvc.Hard.Rock.Mixing.Session.2019.part5.rar
http://nitroflare.com/view/99685D544A043C3/v8cvc.Hard.Rock.Mixing.Session.2019.part6.rar
http://nitroflare.com/view/806101741729C73/v8cvc.Hard.Rock.Mixing.Session.2019.part7.rar
http://nitroflare.com/view/8826567E53EDAFB/v8cvc.Hard.Rock.Mixing.Session.2019.part8.rar


Links are Interchangeable - No Password - Single Extraction

Direct Download

Tags: Mixing, Session

Hard Rock Mixing Session (2019) . Download via Hotfile Rapidshare Fileserve Megaupload & FileSonic, Hard Rock Mixing Session (2019) . free torrent downloads included crack, serial, keygen.


Attention!Information

Members of Guest cannot leave comments.