Dean Graziosi - Rock Bottom Blueprint [Updated]

Download Now

Dean Graziosi - Rock Bottom Blueprint [Updated]

Dean Graziosi - Rock Bottom Blueprint pdated
WEBRip | English | FLV | 720 x 486 | VP6 ~500 Kbps | 29.970 fps
MP3 | 64 Kbps | 22.05 KHz | 2 channels | ~20 hours | 5.03 GB
Genre: eLearning Video / Business, Real Estate
Happy DAY Readers, You can go watch Dean Graziosi's third new training video now! This guy is truly creative in the way he teaches. He's literally cooking while he is answering questions you have posted Readers, Yea; YOU gotta see this Team. And Dean Graziosi isn't afraid to go right after your toughest questions: - "Come on Dean, can I really do this with no money?" - "Does it work in my crappy area" - "What makes this different then all the other stuff out there"


Dean Graziosi answers these and more tough questions with straight forward, easy to understand answers Readers.

Plus he includes video clips of people with, pulse pounding information to share on how they're pulling in thousands of dollars in passive income every month, (many with no money) and even becoming millionaires in the "So Called" worst Real Estate Market ever.

Listen, you need to go watch this Video right away, because on top of all that, Dean Graziosi is doing a special "tell all" conference call next week and you'll definitely want to be a part of it.

You need to watch the Video to get the date and time of the call. PLUS A SPECIAL USEABLE GIFT.

You're going to get all the proof of why the "Rock Bottom Blueprint" works, and how you can be the first to start using it and finally, once and for all, change your life for the better!

So click below and let me know what you think.

also You can find my other helpful
https://rapu.world/search/?category_slug=&query=Business&language=&age=year&author=ParRus&search=1

General
Complete name : Video-03.flv
Format : Flash Video
File size : 118 MiB
Duration : 26 min 27 s
Overall bit rate : 625 kb/s

Video
Format : VP6
Codec ID : 4
Duration : 26 min 27 s
Bit rate : 500 kb/s
Width : 720 pixels
Height : 486 pixels
Display aspect ratio : 3:2
Frame rate mode : Constant
Frame rate : 29.970 FPS
Standard : NTSC
Bit depth : 8 bits
Bits/(Pixel*Frame) : 0.048
Stream size : 94.6 MiB (80%)

Audio
Format : MPEG Audio
Format version : Version 2
Format profile : Layer 3
Format settings : Joint stereo / Intensity Stereo + MS Stereo
Codec ID : 2
Codec ID/Hint : MP3
Duration : 26 min 27 s
Bit rate mode : Constant
Bit rate : 64.0 kb/s
Channel(s) : 2 channels
Sampling rate : 22.05 kHz
Compression mode : Lossy
Stream size : 12.1 MiB (10%)

Screenshots

Dean Graziosi - Rock Bottom Blueprint [Updated]

Dean Graziosi - Rock Bottom Blueprint [Updated]

Dean Graziosi - Rock Bottom Blueprint [Updated]
DOWNLOAD
(Buy premium account for maximum speed and resuming ability)






Direct Download

Tags: Graziosi, Bottom, Blueprint, Updated

Dean Graziosi - Rock Bottom Blueprint [Updated] Download via Hotfile Rapidshare Fileserve Megaupload & FileSonic, Dean Graziosi - Rock Bottom Blueprint [Updated] free torrent downloads included crack, serial, keygen.


Attention!Information

Members of Guest cannot leave comments.