The Complete Web Developer Bootcamp Beginner To Expert (updated)

Download Now

The Complete Web Developer Bootcamp   Beginner To Expert (updated)
The Complete Web Developer Bootcamp - Beginner to Expert (Updated)
WEBRip | English | MP4 | 640 x 360 | AVC ~107 Kbps | 30 fps
AAC | 56.2 Kbps | 44.1 KHz | 2 channels | ~21 hours | 1.8 GB
Genre: Video Tutorial


=

Complete web development training. Get hired by building real apps with HTML, CSS, JS, Rails in this immersive course.

This complete course is designed to educate and transform you into a job-ready, employable web developer. You'll learn by building real applications with features found in sites like Facebook, Hulu, and Dropbox.

You'll also build and launch a real startup that you can customize for your own business idea or online store. This course includes a downloadable ebook that details the steps to get hired as a freelancer or full-time web developer.

By the end of this course, you'll have learned HTML, CSS, jāvascript, jQuery, Ruby on Rails, e-commerce and more. You'll have built and launched a startup from scratch and your own portfolio of sites to share with employers and get hired.

Why learn Rails? It's one of the highest paying programmer job titles out there with an average salary of over $100,000 in many cities and an entry level salary of approximately $77,000. It's easy to learn with the right instructor and the job market is excellent because there are simply not enough developers right now. The included ebook will show you exactly where to find the best, flexible jobs and how to do well with the interviews.

How does the course work?

Duration: Over 175 lectures and 22+ hours of videos and over 30 hours of exercises. The course is designed to also point you to a curated set of even more advanced topics to continue your learning and fill out your knowledge.

Learn: HTML, CSS, jāvascript, jQuery, Ruby, Rails, Git, E-Commerce with Stripe, Servers, Heroku, Bootstrap, Databases, and more.

Build: You'll create your own portfolio of 14 sites (from the exercises) and you build and launch a startup that can sign users up and earn money by charging for premium memberships. You'll be able to customize this to launch your own business, online store, or startup and earn money around the clock.

Get Hired: The included ebook walks you through everything you need to find jobs, do well in the interviews, and get hired and paid entry level or more.

Take this course if you want an amazing, flexible job and lifestyle. Half-day Fridays, free food and beer, working from home are all common perks for Ruby on Rails web developers. And, if you have great startup ideas, this course will show you how to build them.

I tried so many courses, books, and tutorials when I was learning, but I was disappointed with what I found. That's why I made this course - so that you have one place to learn everything you need to become job-ready. Join me inside!

Who this course is for:
This course is for anyone who wants a job as a well-paid, professional web developer, and for anyone who wants to launch a startup. No experience required. This course is complete and covers everything you need to know and you'll learn one of the highest paying software skillsets: Ruby on Rails.

What you'll learn
Build websites and web applications on a professional scale.
Use HTML, CSS, jāvascript, jQuery, Ruby on Rails, Git, and more - these are job skills of the modern web developer.

also You can find my other last:

https://rapu.world/search/?category_slug=&query=programming&language=&age=&author=ParRus&search=1



programming-posts

General
Complete name : 4. Contacts Controller.mp4
Format : MPEG-4
Format profile : Base Media
Codec ID : isom (isom/avc1/mp42)
File size : 3.00 MiB
Duration : 2 min 31 s
Overall bit rate mode : Variable
Overall bit rate : 166 kb/s
Encoded date : UTC 2015-01-16 01:24:02
Tagged date : UTC 2015-01-16 01:24:02

Video
ID : 1
Format : AVC
Format/Info : Advanced Video Codec
Format settings : 3 Ref Frames
Format settings, CABAC : No
Format settings, RefFrames : 3 frames
Format settings, GOP : M=1, N=75
Codec ID : avc1
Codec ID/Info : Advanced Video Coding
Duration : 2 min 31 s
Bit rate : 107 kb/s
Maximum bit rate : 1 024 kb/s
Width : 640 pixels
Height : 360 pixels
Display aspect ratio : 16:9
Frame rate mode : Constant
Frame rate : 30.000 FPS
Color space : YUV
Chroma subsampling : 4:2:0
Bit depth : 8 bits
Scan type : Progressive
Bits/(Pixel*Frame) : 0.016
Stream size : 1.94 MiB (65%)
Writing library : Zencoder Video Encoding System
Encoded date : UTC 2015-01-16 01:23:49
Tagged date : UTC 2015-01-16 01:24:02
Color range : Limited
Color primaries : BT.709
Transfer characteristics : BT.709
Matrix coefficients : BT.709

Audio
ID : 2
Format : AAC
Format/Info : Advanced Audio Codec
Format profile : LC
Codec ID : mp4a-40-2
Duration : 2 min 31 s
Bit rate mode : Variable
Bit rate : 56.2 kb/s
Maximum bit rate : 108 kb/s
Channel(s) : 2 channels
Channel positions : Front: L R
Sampling rate : 44.1 kHz
Frame rate : 43.066 FPS (1024 SPF)
Compression mode : Lossy
Stream size : 1.02 MiB (34%)
Encoded date : UTC 2015-01-16 01:24:02
Tagged date : UTC 2015-01-16 01:24:02

Screenshots
The Complete Web Developer Bootcamp   Beginner To Expert (updated)
The Complete Web Developer Bootcamp   Beginner To Expert (updated)
The Complete Web Developer Bootcamp   Beginner To Expert (updated)

Download link
Nitroflare

Rapidgator

Direct Download

Tags: Complete, Developer, Bootcamp, Beginner, Expert, updated

The Complete Web Developer Bootcamp Beginner To Expert (updated) Download via Hotfile Rapidshare Fileserve Megaupload & FileSonic, The Complete Web Developer Bootcamp Beginner To Expert (updated) free torrent downloads included crack, serial, keygen.


Attention!Information

Members of Guest cannot leave comments.