Autopsy Life and Death (4 episodes)

Download Now

Autopsy Life and Death (4 episodes)

Autopsy Life and Death (4 episodes)
DVDRip | English | AVI/XviD 25.000 fps 908 Kbps | 640x368 | MP3 128 Kbps 48.0 khz | 4x48mn | 1.37 GB
Genre: Video Training, Anatomy

It's said that the dead tell no tales-but an autopsy reveals a lot about how a person lived and died. In this four-part series, world-renowned anatomist Gunther von Hagens and pathologist John Lee study and dissect human cadavers-preserved through plastination, von Hagens' patented process-and clearly illustrate the causes of death.
It's said that the dead tell no tales-but an autopsy reveals a lot about how a person lived and died. In this four-part series, world-renowned anatomist Gunther von Hagens and pathologist John Lee study and dissect human cadavers-preserved through plastination, von Hagens' patented process-and clearly illustrate the causes of death. Each program features eye-opening lessons in anatomy and pathology, offering an in-depth look at the intense hands-on training that precedes a career in medicine. A follow-up to the series Anatomy for Beginners, item. Contains clinically explicit language and demonstrations. 4-part series, 49 minutes each.

Autopsy Programme 2 - Cancer
In the second programme of the series von Hagens and Lee take a look at cancer. They illuminate the difficulties of diagnosing and treating a disease that is a result of the body's own cells multiplying uncontrollably. Von Hagens dissects a woman who died of bowel cancer to reveal the site of the primary tumour and the other parts of her body that it affected. He also reveals the silent spread of tumours in the frozen body of a woman who died from breast cancer.

Autopsy Programme 3 - Poisoning
When von Hagens and Lee address the subject of poisoning, they are not thinking of a murder mystery. Von Hagens dissects the body of a dialysis patient who died of kidney failure to reveal that we are more likely to die of internal poisoning than by a surreptitious dose of arsenic. Lee explains how the body can be contaminated if critical organs like the kidneys and liver malfunction and fail to filter out poisonous byproducts of metabolism.

Autopsy Programme 4 - Ageing
In the last programme, von Hagens and Lee illustrate the process of ageing. To reveal the dread process for us all to see, the two scientists compare the bodies of two live models - an 84-year-old and a 24-year-old. Von Hagens then compares sections from the cadaver of a woman over 80 years old with the same sections from a much younger woman. By revealing the internal extent of ageing damage, von Hagens and Lee demonstrate the widespread effects of ageing and explain why we can't life forever.

General
Complete name : Autopsy.Life.And.Death.Part.Four.avi
Format
: AVI
Format/Info
: Audio Video Interleave
File size
: 350 MiB
Duration
: 47mn 21s
Overall bit rate mode : Variable
Overall bit rate : 1 033 Kbps
Writing application

: VirtualDubMod 1.5.4.1 (build 2178/release)
Writing library : VirtualDubMod build 2178/release

Video
ID : 0
Format
: MPEG-4 Visual
Format profile : Advanced [email protected]
Format settings, BVOP : 1
Format settings, QPel : No
Format settings, GMC : No warppoints
Format settings, Matrix : Custom
Codec ID
: XVID
Codec ID/Hint : XviD
Duration
: 47mn 21s
Bit rate
: 908 Kbps
Width
: 640 pixels
Height
: 368 pixels
Display aspect ratio : 1.739
Frame rate
: 25.000 fps
Color space
: YUV
Chroma subsampling

: 4:2:0
Bit depth
: 8 bits
Scan type
: Progressive
Compression mode : Lossy
Bits/(Pixel*Frame)

: 0.154
Stream size
: 308 MiB (88%)
Writing library : XviD 1.1.0 (UTC 2005-11-22)

Audio
ID : 1
Format
: MPEG Audio
Format version : Version 1
Format profile : Layer 3
Mode
: Joint stereo
Mode extension : MS Stereo
Codec ID
: 55
Codec ID/Hint : MP3
Duration
: 47mn 21s
Bit rate mode : Variable
Bit rate
: 112 Kbps
Nominal bit rate : 128 Kbps
Channel(s)
: 2 channels
Sampling rate : 48.0 KHz
Compression mode : Lossy
Stream size
: 37.9 MiB (11%)
Alignment
: Aligned on interleaves
Interleave, duration : 24 ms (0.60 video frame)
Interleave, preload duration : 555 ms
Writing library : LAME3.97b
Encoding settings: -m j -V 4 -q 2 -lowpass 17 --abr 128

Screenshots

Autopsy Life and Death (4 episodes)

Autopsy Life and Death (4 episodes)


DOWNLOAD LINKS:
Buy Premium To Support Me & Get Resumable Support & Max Speed


Links are Interchangeable - No Password - Single Extraction

Direct Download

Tags: Autopsy, episodes

Autopsy Life and Death (4 episodes) Download via Hotfile Rapidshare Fileserve Megaupload & FileSonic, Autopsy Life and Death (4 episodes) free torrent downloads included crack, serial, keygen.


Attention!Information

Members of Guest cannot leave comments.