A Fame Dance Workout

Download Now

A Fame Dance Workout

A Fame Dance Workout
DVDRip | English | MP4 | 720 x 576 | AVC ~1811 kbps | 25 fps
AAC | 157 Kbps | 48.0 KHz | 2 channels | 01:11:10 | 1005 MB
Genre: eLearning Video / Dance, Fitness, Aerobic

"This sensational workout, inspired by the movie, is designed to help improve muscle tone, flexibility, burn calories and so aid in losing weight; all done to an amazing soundtrack in a fun and energetic workout. Our Instructor & Choreographer has worked with Jamelia, Kylie and Beyonce, all of who have one thing in common, they have great looking bodies because they dance!"

We then move into the aerobic section of the DVD - the dance class; this is split into four 8-10 minute phases. Phase 1 - concerntrates on toning the inner and outer thigh muscles. Phase 2 - emphasis is on the shoulders and legs. Phase 3 - keeps your heart rate up with off the spot action for extra fat burning. Phase 4 - brings the body back down slowly with a mellow routine. We then move onto the toning section of the DVD, keeping it true dance fashion we start with some classic barre exercises (where you can use a chair)...ever wondered why dancers have such fabulous legs and bums well you'll find out here! Then onto the floor to strengthen and tone the abs, obliques, triceps, lower back and pecs. Incorporating a dance stretch to encourage your muscles and you to relax and avoid injury. We finish with a remobiliser to awaken the body and get you ready for your day/night! This DVD can be run as a full programme (70mins) or you can choose just one or two of the dance classes if you don't have time. In the extras the dance team freestyle to the classic track 'I Want To Live Forever' which can be a fun addition to any workout! Inspired but not endorsed by or in any way associated with the movie!

also You can look my other last:

General
Complete name : A Fame Dance Workout.mp4
Format
: MPEG-4
Format profile : Base Media / Version 2
Codec ID
: mp42
File size
: 874 MiB
Duration
: 1h 1mn
Overall bit rate mode : Variable
Overall bit rate : 1 975 Kbps
Encoded date : UTC 2036-02-06 06:28:16
Tagged date
: UTC 2036-02-06 06:28:16
Writing application

: HandBrake 0.10.2 2015060900

Video
ID : 1
Format
: AVC
Format/Info
: Advanced Video Codec
Format profile : [email protected]
Format settings, CABAC : Yes
Format settings, ReFrames : 4 frames
Codec ID
: avc1
Codec ID/Info : Advanced Video Coding
Duration
: 1h 1mn
Bit rate
: 1 811 Kbps
Width
: 720 pixels
Height
: 576 pixels
Display aspect ratio : 16:9
Frame rate mode : Constant
Frame rate
: 25.000 fps
Standard
: PAL
Color space
: YUV
Chroma subsampling

: 4:2:0
Bit depth
: 8 bits
Scan type
: Progressive
Bits/(Pixel*Frame)

: 0.175
Stream size
: 801 MiB (92%)
Writing library : x264 core 142 r2479 dd79a61
Encoding settings: cabac=1 / ref=1 / deblock=1:0:0 / analyse=0x1:0x111 / me=hex / subme=2 / psy=1 / psy_rd=1.00:0.00 / mixed_ref=0 / me_range=16 / chroma_me=1 / trellis=0 / 8x8dct=0 / cqm=0 / deadzone=21,11 / fast_pskip=1 / chroma_qp_offset=0 / threads=6 / lookahead_threads=2 / sliced_threads=0 / nr=0 / decimate=1 / interlaced=0 / bluray_compat=0 / constrained_intra=0 / bframes=3 / b_pyramid=2 / b_adapt=1 / b_bias=0 / direct=1 / weightb=1 / open_gop=0 / weightp=1 / keyint=250 / keyint_min=25 / scenecut=40 / intra_refresh=0 / rc_lookahead=10 / rc=2pass / mbtree=1 / bitrate=1811 / ratetol=1.0 / qcomp=0.60 / qpmin=0 / qpmax=69 / qpstep=4 / cplxblur=20.0 / qblur=0.5 / vbv_maxrate=20000 / vbv_bufsize=25000 / nal_hrd=none / filler=0 / ip_ratio=1.40 / aq=1:1.00
Encoded date : UTC 2036-02-06 06:28:16
Tagged date
: UTC 2036-02-06 06:28:16
Color primaries : BT.470-6 System B, BT.470-6 System G, BT.601-6 625, BT.1358 625, BT.1700 625 PAL, BT.1700 625 SECAM
Transfer characteristics : BT.709-5, BT.1361
Matrix coefficients

: BT.601-6 525, BT.1358 525, BT.1700 NTSC, SMPTE 170M

Audio
ID : 2
Format
: AAC
Format/Info
: Advanced Audio Codec
Format profile : LC
Codec ID
: 40
Duration
: 1h 1mn
Bit rate mode : Variable
Bit rate
: 157 Kbps
Channel(s)
: 2 channels
Channel positions: Front: L R
Sampling rate : 48.0 KHz
Compression mode : Lossy
Stream size
: 69.7 MiB (8%)
Title
: Stereo
Encoded date : UTC 2036-02-06 06:28:16
Tagged date
: UTC 2036-02-06 06:28:16

Text
ID : 3
Format
: Apple text
Codec ID
: text
Duration
: 1h 1mn
Bit rate mode : Variable
Bit rate
: 0
Stream size
: 231 Bytes (0%)
Language
: English
Encoded date : UTC 2036-02-06 06:28:16
Tagged date
: UTC 2036-02-06 06:28:16

Screenshots

A Fame Dance Workout

A Fame Dance Workout

A Fame Dance Workout

A Fame Dance Workout

A Fame Dance Workout



Download Links:
(Premium Recommended)


All above links are interchangable. No password

Direct Download

Tags: Workout

A Fame Dance Workout Download via Hotfile Rapidshare Fileserve Megaupload & FileSonic, A Fame Dance Workout free torrent downloads included crack, serial, keygen.


Attention!Information

Members of Guest cannot leave comments.