Penguin Live Lecture with Juan Tamariz

Download Now

Penguin Live Lecture with Juan Tamariz

Penguin Live Lecture with Juan Tamariz
WEBRip | English | FLV | 640 x 360 | AVC ~1165 kbps | 29.970 fps
MP3 | 64.0 Kbps | 22.05 KHz | 2 channels | 03:16:52 | 1.69 GB
Genre: eLearning Video / Magic tricks, illusion

"Juan Tamariz is not your typical magician... but you already knew that. He's a deep thinker whose engaging manner conceals his exceptional cleverness. Whenever Juan Tamariz talks card magic, you'll get so much more out of it than a few moves, or tricks. You'll get a masterclass in the art of magic."

It's no wonder he is so respected by professionals who strive to be more than tricksters. So, prepare yourself to listen to every tiny detail.

Juan begins with a seemingly simple piece where two cards combine to become the selected card. But enough about the trick...he'll tell you why he opens his shows with it and how he uses it to establish his character and create a rapport with his audience.

Of course, you'll want to learn an incredible card trick, and Juan Tamariz will not disappoint, as he shares one of his very clean-looking approaches to the oil and water Description, and even repeats it face-up with the colors separating again with no moves. It's a truly beautiful and elegant piece that concludes with entire deck separating, although it has been thoroughly shuffled.

Now we get into the meat of the lecture as Juan explains how magic differs from most performing arts, and how we can strive to make it have more impact.

Make sure you stick with him as he really gets into the depth of his analytic nature and shows you with clear graphs the concept he's explaining.

Then, it's back to the cards as Juan performs a trick with a borrowed deck. I'll warn you... he doesn't explain it, but you're encouraged to think about it.

Next, he shows you his approach to a follow-the-leader style effect with ten red and ten black cards that just won't seem to stay put.

And finally, he finishes with an interactive trick involving the whole audience... and you (if you follow along at home). All you need are any seven cards.

So, get ready to spend some time learning about "more than cards" from the maestro himself, Juan Tamariz, right here at Penguin Live.

also You can look my other last:

General
Complete name : C:\Users\Антонина\Downloads\Penguin Live - Juan Tamariz.flv
Format
: Flash Video
File size
: 1.70 GiB
Duration
: 3h 16mn
Overall bit rate : 1 238 Kbps

Video
Format
: Sorenson Spark
Codec ID
: 2
Duration
: 3h 16mn
Bit rate
: 1 165 Kbps
Width
: 640 pixels
Height
: 360 pixels
Display aspect ratio : 16:9
Frame rate mode : Constant
Frame rate
: 29.970 fps
Bit depth
: 8 bits
Bits/(Pixel*Frame)

: 0.169
Stream size
: 1.60 GiB (94%)

Audio
Format
: MPEG Audio
Format version : Version 2
Format profile : Layer 3
Mode
: Joint stereo
Mode extension : MS Stereo
Codec ID
: 2
Codec ID/Hint : MP3
Duration
: 3h 16mn
Bit rate mode : Constant
Bit rate
: 64.0 Kbps
Channel(s)
: 2 channels
Sampling rate : 22.05 KHz
Compression mode : Lossy
Stream size
: 96.9 MiB (6%)
Writing library : LAME3.96.1

Screenshots

Penguin Live Lecture with Juan Tamariz

Penguin Live Lecture with Juan Tamariz

Penguin Live Lecture with Juan Tamariz

Penguin Live Lecture with Juan Tamariz



DOWNLOAD
(Premium Recommended)

Rapidgator.net:
http://rapidgator.net/file/0184ab233764f40ff18242a8f2bcdd67/vqefq.P.L.L.w.J.T.part1.rar.html
http://rapidgator.net/file/a43db65251f16dbc103a0d7371c33a34/vqefq.P.L.L.w.J.T.part2.rar.html
http://rapidgator.net/file/3598afa822a447453bf632d05c9987b7/vqefq.P.L.L.w.J.T.part3.rar.html
http://rapidgator.net/file/d054f763cc5a6da779b9a8c6d700f9c1/vqefq.P.L.L.w.J.T.part4.rar.html
http://rapidgator.net/file/7c6878862c25021c270f62c0144df71b/vqefq.P.L.L.w.J.T.part5.rar.html
http://rapidgator.net/file/f8f3b7d3ea90b0040df24a2cbd965cfb/vqefq.P.L.L.w.J.T.part6.rar.html

Uploaded.net:
http://uploaded.net/file/4qepcxt4/vqefq.P.L.L.w.J.T.part1.rar
http://uploaded.net/file/7likdz2d/vqefq.P.L.L.w.J.T.part2.rar
http://uploaded.net/file/y23yqlon/vqefq.P.L.L.w.J.T.part3.rar
http://uploaded.net/file/8n5b7pgd/vqefq.P.L.L.w.J.T.part4.rar
http://uploaded.net/file/ccghgind/vqefq.P.L.L.w.J.T.part5.rar
http://uploaded.net/file/4zacmlm6/vqefq.P.L.L.w.J.T.part6.rar

nitroflare_com:
http://nitroflare.com/view/7D0A9516A912E38/vqefq.P.L.L.w.J.T.part1.rar
http://nitroflare.com/view/4F358154090A6D0/vqefq.P.L.L.w.J.T.part2.rar
http://nitroflare.com/view/5EC9DC5D14C4110/vqefq.P.L.L.w.J.T.part3.rar
http://nitroflare.com/view/9B7024E49302766/vqefq.P.L.L.w.J.T.part4.rar
http://nitroflare.com/view/2FFAE3893972B2B/vqefq.P.L.L.w.J.T.part5.rar
http://nitroflare.com/view/496B05B9B5AFFC0/vqefq.P.L.L.w.J.T.part6.rar

Uploadable.ch:
http://www.uploadable.ch/file/hff3sNYQDTWQ/vqefq.P.L.L.w.J.T.part1.rar
http://www.uploadable.ch/file/2K7TQKadcNxD/vqefq.P.L.L.w.J.T.part2.rar
http://www.uploadable.ch/file/SjJJpwQkYph6/vqefq.P.L.L.w.J.T.part3.rar
http://www.uploadable.ch/file/27pTgXudpCc8/vqefq.P.L.L.w.J.T.part4.rar
http://www.uploadable.ch/file/8VCWz8jFmxCk/vqefq.P.L.L.w.J.T.part5.rar
http://www.uploadable.ch/file/GSY7kAMJKjYR/vqefq.P.L.L.w.J.T.part6.rar

All above links are interchangable. No password

Direct Download

Tags: Penguin, Lecture, Tamariz

Penguin Live Lecture with Juan Tamariz Download via Hotfile Rapidshare Fileserve Megaupload & FileSonic, Penguin Live Lecture with Juan Tamariz free torrent downloads included crack, serial, keygen.


Attention!Information

Members of Guest cannot leave comments.