Servers For Hackers with Chris Fidao

Download Now

Servers For Hackers with Chris Fidao

Servers For Hackers with Chris Fidao
WEBRip | English | MP4 | 1280 x 720 | AVC ~1449 kbps | 30 fps
AAC | 247 Kbps | 44.1 KHz | 2 channels | 02:25:53 | 1.55 GB
Genre: Video Tutorial / Networks and Security, Hacking

"Application development is getting more complex, and we developers need to know how to setup and maintain the servers that run our applications. Don't get stuck at 3am with a broken server, or in the middle of your workday fighting configuration. Learn how to administer your servers!"

Contents:

Ansible
A - Getting Started with Ansible.mp4
B - Ansible Playbooks.mp4
C - Ansible Roles.mp4
D - Ansible Vault.mp4

Process monitoring
Supervisord.mp4

SSL
Debugging SSL and Building Certificate Files.mp4
Purchase & Install an SSL Certificate.mp4
Purchase & Install Wildcard SSL Certificate.mp4
Self-Signed SSL Certificates.mp4

Vagrant
Basic Vagrant.mp4
Web Server & File Permissions in Vagrant.mp4
Xip.io and Wildcard Subdomains in Vagrant.mp4

General
Complete name : A - Getting Started with Ansible.mp4
Format
: MPEG-4
Format profile : Base Media / Version 2
Codec ID
: mp42
File size
: 161 MiB
Duration
: 13mn 14s
Overall bit rate mode : Variable
Overall bit rate : 1 701 Kbps
Encoded date : UTC 2014-09-27 01:47:59
Tagged date
: UTC 2014-09-27 01:53:02

Video
ID : 1
Format
: AVC
Format/Info
: Advanced Video Codec
Format profile : [email protected]
Format settings, CABAC : Yes
Format settings, ReFrames : 5 frames
Format settings, GOP : M=4, N=25
Codec ID
: avc1
Codec ID/Info : Advanced Video Coding
Duration
: 13mn 14s
Bit rate mode : Variable
Bit rate
: 1 449 Kbps
Width
: 1 280 pixels
Height
: 720 pixels
Display aspect ratio : 16:9
Frame rate mode : Constant
Frame rate
: 30.000 fps
Color space
: YUV
Chroma subsampling

: 4:2:0
Bit depth
: 8 bits
Scan type
: Progressive
Bits/(Pixel*Frame)

: 0.052
Stream size
: 137 MiB (85%)
Encoded date : UTC 2014-09-27 01:47:59
Tagged date
: UTC 2014-09-27 01:53:02
Color primaries : BT.709-2, SMPTE 274M, SMPTE 296M
Transfer characteristics : BT.709-2, SMPTE 170M, SMPTE 274M, SMPTE 293M, SMPTE 296M
Matrix coefficients

: BT.709-2, SMPTE 274M, SMPTE 296M

Audio
ID : 2
Format
: AAC
Format/Info
: Advanced Audio Codec
Format profile : LC
Codec ID
: 40
Duration
: 13mn 14s
Bit rate mode : Variable
Bit rate
: 247 Kbps
Maximum bit rate : 368 Kbps
Channel(s)
: 2 channels
Channel positions: Front: L R
Sampling rate : 44.1 KHz
Compression mode : Lossy
Stream size
: 23.4 MiB (15%)
Encoded date : UTC 2014-09-27 01:47:59
Tagged date
: UTC 2014-09-27 01:48:31

Screenshots

Servers For Hackers with Chris Fidao

Servers For Hackers with Chris Fidao

Servers For Hackers with Chris Fidao


DOWNLOAD LINKS
(Premium Recommended)


Links are Interchangeable - No Password - Single Extraction

Direct Download

Tags: Servers, Hackers

Servers For Hackers with Chris Fidao Download via Hotfile Rapidshare Fileserve Megaupload & FileSonic, Servers For Hackers with Chris Fidao free torrent downloads included crack, serial, keygen.


Attention!Information

Members of Guest cannot leave comments.