Metal Method - Fret Touch Mechanics (2015)

Download Now


Metal Method - Fret Touch Mechanics (2015)
Metal Method - Fret Touch Mechanics (2015)
WEBRip | English | MP4 | 640 x 360 | AVC ~2985 Kbps | 30 fps
AAC | 61.6 Kbps | 44.1 KHz | 2 channels | 00:34:11 | 747 MB






"Dan Mumm teaches more than just 8 finger tapping and other shred techniques. In this video he explains how to use scales and modes to create your own shred patterns and sequences."

Guitar Lesson DVD - 8 Finger Tapping and more
He even has a very simple method for mastering modes and scales by reducing all of this complex information into three simple 3 note patterns. Master these three patterns using the suggested fingering and you can shred through any lead. This technique is so obvious yet most guitarists have never reduced it to these three simple building blocks.

General
Complete name : Fret Touch Mechanics.mp4
Format
: MPEG-4
Format profile : Base Media / Version 2
Codec ID
: mp42
File size
: 746 MiB
Duration
: 34mn 11s
Overall bit rate mode : Variable
Overall bit rate : 3 052 Kbps
Encoded date : UTC 2011-06-21 06:45:57
Tagged date
: UTC 2011-06-21 06:45:57
ęTIM
: 00:00:00:12
ęTSC
: 30000
ęTSZ
: 1001

Video
ID : 1
Format
: AVC
Format/Info
: Advanced Video Codec
Format settings, CABAC : Yes
Format settings, ReFrames : 3 frames
Codec ID
: avc1
Codec ID/Info : Advanced Video Coding
Duration
: 34mn 11s
Bit rate
: 2 985 Kbps
Width
: 640 pixels
Height
: 360 pixels
Display aspect ratio : 16:9
Frame rate mode : Constant
Frame rate
: 30.000 fps
Standard
: NTSC
Color space
: YUV
Chroma subsampling

: 4:2:0
Bit depth
: 8 bits
Scan type
: Progressive
Bits/(Pixel*Frame)

: 0.432
Stream size
: 730 MiB (98%)
Language
: English
Encoded date : UTC 2011-06-21 06:45:57
Tagged date
: UTC 2011-06-21 06:45:57

Audio
ID : 2
Format
: AAC
Format/Info
: Advanced Audio Codec
Format profile : LC
Codec ID
: 40
Duration
: 34mn 11s
Source duration : 34mn 11s
Bit rate mode : Variable
Bit rate
: 61.6 Kbps
Maximum bit rate : 109 Kbps
Channel(s)
: 2 channels
Channel positions: Front: L R
Sampling rate : 44.1 KHz
Compression mode : Lossy
Stream size
: 15.1 MiB (2%)
Source stream size

: 15.1 MiB
Language
: English
Encoded date : UTC 2011-06-21 06:45:57
Tagged date
: UTC 2011-06-21 06:45:57

Screenshots

Metal Method - Fret Touch Mechanics (2015)

Metal Method - Fret Touch Mechanics (2015)

Metal Method - Fret Touch Mechanics (2015)

Metal Method - Fret Touch Mechanics (2015)


I recommends Buy premimum account for High speed+parallel downloads!

Rapidgator


Nitroflare




Direct Download

Tags: Method, Mechanics

Metal Method - Fret Touch Mechanics (2015) Download via Hotfile Rapidshare Fileserve Megaupload & FileSonic, Metal Method - Fret Touch Mechanics (2015) free torrent downloads included crack, serial, keygen.


Attention!Information

Members of Guest cannot leave comments.