Jason Julious - Extreme Sex Drive Complete (2015)

Download Now

Jason Julious - Extreme Sex Drive Complete (2015)

Jason Julious - Extreme Sex Drive Complete (2015)
WEBRip | English | MP4 + PDF Guides | 854 x 480 | AVC ~496 kbps | 23.976 fps
AAC | 80 Kbps | 44.1 KHz | 2 channels | ~4 hours | 852.2 MB
Genre: eLearning Video / Love & Relationship, Sex

"Jason Julius introduces his step-by-step blueprint for regaining total control of your sex drive. The program is the result of over two years of study and analyzing sex-drive-boosting studies, as well as observing real influences that dictate male sex drive. The program incorporates Jason's "Libido Triad", a minimalist lifestyle approach for optimizing male sex drive, without doctor consultation, pharmaceutical drugs, or their possible side effects."

Program tips include:
- Identifying 3 core parts of daily activity and making simple tweaks
- Avoid eating Soy, the hidden poison in a lot of foods, and the reasons why
- Relax and quickly recover from sex by soaking in a hot epsom salt bath
- Explanation of the Libido Triad Principle (three parts of the sex drive cycle) and exercises

Access to:
- Extreme Sex Drive video program
- Forever Foreplay video tutorial
- Female Orgasm Secrets video tutorial
- Adonis Effect Golden Ratio report
- Plus: Energy Multiplier Method video training

Bonuses include: - Forever Foreplay: Get a woman in the mood fast
- Female Orgasm Secrets: Types of orgasms, including G Spot video demonstrations
- Energy Multiplier Method: How to increase energy and focus (limited time offer)
- Adonis Effect Golden Ratio: The body type most women are attracted to, including ratio improving exercises

Content:
Energy Multiplier Method Part 1
Energy Multiplier Method Part 2
Energy Multiplier Method Part 3
Extreme Sex Drive Module 1
Extreme Sex Drive Module 2 - Part 1
Extreme Sex Drive Module 2 - Part 2
Extreme Sex Drive Module 3
Extreme Sex Drive Module 4
Extreme Sex Drive Module 5
Female Orgasm Secrets
Foreplay
How To Increase Ejaculation Pleasure


General
Complete name : Extreme Sex Drive Module 2 - Part 2.mp4
Format
: MPEG-4
Format profile : Base Media / Version 2
Codec ID
: mp42
File size
: 87.1 MiB
Duration
: 21mn 0s
Overall bit rate : 580 Kbps
Encoded date : UTC 2013-02-14 02:21:14
Tagged date
: UTC 2013-02-14 02:21:17

Video
ID : 2
Format
: AVC
Format/Info
: Advanced Video Codec
Format profile : [email protected]
Format settings, CABAC : No
Format settings, ReFrames : 2 frames
Codec ID
: avc1
Codec ID/Info : Advanced Video Coding
Duration
: 21mn 0s
Bit rate
: 496 Kbps
Width
: 854 pixels
Height
: 480 pixels
Display aspect ratio : 16:9
Frame rate mode : Constant
Frame rate
: 23.976 fps
Color space
: YUV
Chroma subsampling

: 4:2:0
Bit depth
: 8 bits
Scan type
: Progressive
Bits/(Pixel*Frame)

: 0.051
Stream size
: 74.6 MiB (86%)
Language
: English
Encoded date : UTC 2013-02-14 02:20:29
Tagged date
: UTC 2013-02-14 02:21:17
Color primaries : BT.709-5, BT.1361, IEC 61966-2-4, SMPTE RP177
Transfer characteristics : BT.709-5, BT.1361
Matrix coefficients

: BT.709-5, BT.1361, IEC 61966-2-4 709, SMPTE RP177

Audio
ID : 1
Format
: AAC
Format/Info
: Advanced Audio Codec
Format profile : LC
Codec ID
: 40
Duration
: 21mn 0s
Source duration : 21mn 0s
Bit rate mode : Constant
Bit rate
: 80.0 Kbps
Channel(s)
: 2 channels
Channel positions: Front: L R
Sampling rate : 44.1 KHz
Compression mode : Lossy
Stream size
: 11.8 MiB (14%)
Source stream size

: 11.8 MiB
Language
: English
Encoded date : UTC 2013-02-14 02:20:28
Tagged date
: UTC 2013-02-14 02:21:17

Screenshots

Jason Julious - Extreme Sex Drive Complete (2015)

Jason Julious - Extreme Sex Drive Complete (2015)

Jason Julious - Extreme Sex Drive Complete (2015)

Jason Julious - Extreme Sex Drive Complete (2015)

Jason Julious - Extreme Sex Drive Complete (2015)



DOWNLOAD LINKS
(Premium Recommended)


Links are Interchangeable - No Password - Single Extraction

Direct Download

Tags: Julious, Extreme, Complete

Jason Julious - Extreme Sex Drive Complete (2015) Download via Hotfile Rapidshare Fileserve Megaupload & FileSonic, Jason Julious - Extreme Sex Drive Complete (2015) free torrent downloads included crack, serial, keygen.


Attention!Information

Members of Guest cannot leave comments.