Matthew Woodward (Marketerseal) PBN Specialist Certification Program

Download Now

Matthew Woodward (Marketerseal) PBN Specialist Certification Program

Matthew Woodward (Marketerseal) PBN Specialist Certification Program
WEBRip | English | MP4 | 1920 x 1080 | AVC ~513 kbps | AAC | 160 Kbps | 44.1 KHz | 2 channels | 02:20:51 | 609 MB
Genre: eLearning Video / Business, Net: Advertising, Web Traffic

"Learn precisely how to increase traffic & rankings for any website in any niche while getting recognized for your skills with this complete certification program."

And I don't think I'm exaggerating when I say that the course content in SEO That Works is head and shoulders above what you'll find elsewhere (if you can even find it at all).
Before I get into how you can register for SEO That Works, let me show you all the cool bonuses you'll get when you invest in the course:
Instant access to 53 lessons
Personalised certificate & badge
The ability to rank any site in any niche
100% money back guarantee

What Other People Say...

If you want a no-BS, step-by-step, straightforward course on PBN building and management, Matthew's course is highly recommended.
Terry Kyle

This is the most comprehensive course on private blog networks I've ever seen. If you want to know how to work with them the RIGHT way then this certification is an absolute must. Whether you're a beginner looking to find out what PBNs can do or an experienced SEO looking to up your game, this one's for you!
Matthew Barby

Matthew always delivers top quality with high standards in whatever he does and this certification is no exception! He guides you through everything you need to know and warns of all the common pitfalls that newbies (and many experienced builders) fall into. If you invest in this certification you will be able to rank in Google easily.
Stuart Walker

also You can look my other last:

General
Complete name : Expired Domain Source #7-1.mp4
Format
: MPEG-4
Format profile : Base Media / Version 2
Codec ID
: mp42
File size
: 19.9 MiB
Duration
: 4mn 5s
Overall bit rate mode : Variable
Overall bit rate : 678 Kbps
Encoded date : UTC 2036-02-06 06:28:16
Tagged date
: UTC 2036-02-06 06:28:16
Writing application

: HandBrake 0.10.2 2015060900

Video
ID : 1
Format
: AVC
Format/Info
: Advanced Video Codec
Format profile : [email protected]
Format settings, CABAC : Yes
Format settings, ReFrames : 4 frames
Codec ID
: avc1
Codec ID/Info : Advanced Video Coding
Duration
: 4mn 5s
Bit rate
: 513 Kbps
Width
: 1 920 pixels
Height
: 1 080 pixels
Display aspect ratio : 16:9
Frame rate mode : Constant
Frame rate
: 30.000 fps
Color space
: YUV
Chroma subsampling

: 4:2:0
Bit depth
: 8 bits
Scan type
: Progressive
Bits/(Pixel*Frame)

: 0.008
Stream size
: 15.0 MiB (76%)
Writing library : x264 core 142 r2479 dd79a61
Encoding settings: cabac=1 / ref=4 / deblock=1:0:0 / analyse=0x1:0x131 / me=umh / subme=10 / psy=1 / psy_rd=1.00:0.00 / mixed_ref=1 / me_range=24 / chroma_me=1 / trellis=2 / 8x8dct=0 / cqm=0 / deadzone=21,11 / fast_pskip=1 / chroma_qp_offset=-2 / threads=6 / lookahead_threads=1 / sliced_threads=0 / nr=0 / decimate=1 / interlaced=0 / bluray_compat=0 / constrained_intra=0 / bframes=8 / b_pyramid=2 / b_adapt=2 / b_bias=0 / direct=3 / weightb=1 / open_gop=0 / weightp=2 / keyint=300 / keyint_min=30 / scenecut=40 / intra_refresh=0 / rc_lookahead=60 / rc=crf / mbtree=1 / crf=23.0 / qcomp=0.60 / qpmin=0 / qpmax=69 / qpstep=4 / vbv_maxrate=20000 / vbv_bufsize=25000 / crf_max=0.0 / nal_hrd=none / filler=0 / ip_ratio=1.40 / aq=1:1.00
Encoded date : UTC 2036-02-06 06:28:16
Tagged date
: UTC 2036-02-06 06:28:16
Color primaries : BT.709-5, BT.1361, IEC 61966-2-4, SMPTE RP177
Transfer characteristics : BT.709-5, BT.1361
Matrix coefficients

: BT.709-5, BT.1361, IEC 61966-2-4 709, SMPTE RP177

Audio
ID : 2
Format
: AAC
Format/Info
: Advanced Audio Codec
Format profile : LC
Codec ID
: 40
Duration
: 4mn 5s
Bit rate mode : Variable
Bit rate
: 160 Kbps
Channel(s)
: 2 channels
Channel positions: Front: L R
Sampling rate : 44.1 KHz
Compression mode : Lossy
Stream size
: 4.67 MiB (24%)
Title
: Stereo
Language
: English
Encoded date : UTC 2036-02-06 06:28:16
Tagged date
: UTC 2036-02-06 06:28:16

Screenshots

Matthew Woodward (Marketerseal) PBN Specialist Certification Program

Matthew Woodward (Marketerseal) PBN Specialist Certification Program

Matthew Woodward (Marketerseal) PBN Specialist Certification Program



DOWNLOAD:
Buy Premium From My Links To Get Resumable Support & Max Speed & To Support Me


Links are Interchangeable - No Password

Direct Download

Tags: Matthew, Woodward, Marketerseal, Specialist, Certification, Program

Matthew Woodward (Marketerseal) PBN Specialist Certification Program Download via Hotfile Rapidshare Fileserve Megaupload & FileSonic, Matthew Woodward (Marketerseal) PBN Specialist Certification Program free torrent downloads included crack, serial, keygen.


Attention!Information

Members of Guest cannot leave comments.