National Geographic - Destination Wild: Colombia (2014)

Download Now


National Geographic - Destination Wild: Colombia (2014)
National Geographic - Destination Wild: Colombia (2014)
HDTV | 1280x720 | .MP4/AVC @ 3042 Kbps | 3x~43min | Audio: English AAC 160 kbps, 2 channels | Subs: None | 2.95 GiB
Genre: Documentary

"The South American country is home to about 14 percent of the world's species, making it the second most biologically diverse nation on Earth. Teeming with more types of birds and vertebrates than anywhere else on the planet, these creatures have adapted to life in an astonishing array of habitats. Crowning South America, Colombia touches both the Pacific and the Atlantic oceans. Sitting on the equator, this wild and exotic land is divided by the soaring peaks of the Andes and carved by the mighty Amazon and Orinoco Rivers. Colombia's landscapes are vast and hugely diverse. Mangroves meander through grasslands, while expanses of mirror-like wetlands fringe verdant rainforests. Snow-capped peaks emerge from mountain slopes clad in misty cloud forests. This mix of pristine environments supports an enormous wealth of unique plants, as well as an extraordinary array of spectacular creatures."

Part 1: The Choco - Colombia's Wild Coast
Spanning the country's western length, the humid Choco region hosts rainforests isolated by the Andes, rich in unique species.

Part 2: Serrania de la Macarena - Natures Treasure Trove
This little-explored outcrop of sandstone comprises lush jungle, shrubland and savannah, isolated peaks, rivers and spectacular waterfalls.

Part 3: Chiribiquete - Journey to the Heart of the Amazon
Prehistoric towers, waterfalls and deep canyons are surrounded here by rivers, lakes and rainforests bursting with life.

General
Complete name : Destination.Wild.Colombia.1of3.The.Choco.Colombias.Wild.Coast.mp4
Format
: MPEG-4
Format profile : Base Media
Codec ID
: isom
File size
: 1 009 MiB
Duration
: 43mn 59s
Overall bit rate mode : Variable
Overall bit rate : 3 207 Kbps

Video
ID : 1
Format
: AVC
Format/Info
: Advanced Video Codec
Format profile : [email protected]
Format settings, CABAC : No
Format settings, ReFrames : 1 frame
Format settings, GOP : M=1, N=12
Codec ID
: avc1
Codec ID/Info : Advanced Video Coding
Duration
: 43mn 59s
Bit rate
: 3 042 Kbps
Width
: 1 280 pixels
Height
: 720 pixels
Display aspect ratio : 16:9
Frame rate mode : Constant
Frame rate
: 23.976 fps
Color space
: YUV
Chroma subsampling

: 4:2:0
Bit depth
: 8 bits
Scan type
: Progressive
Bits/(Pixel*Frame)

: 0.138
Stream size
: 957 MiB (95%)
Language
: English
Encoded date : UTC 2015-05-30 19:22:54
Tagged date
: UTC 2015-05-30 19:22:54

Audio
ID : 2
Format
: AAC
Format/Info
: Advanced Audio Codec
Format profile : LC
Codec ID
: 40
Duration
: 43mn 59s
Bit rate mode : Variable
Bit rate
: 160 Kbps
Channel(s)
: 2 channels
Channel positions: Front: L R
Sampling rate : 48.0 KHz
Compression mode : Lossy
Stream size
: 50.3 MiB (5%)
Encoded date : UTC 2015-05-30 19:22:54
Tagged date
: UTC 2015-05-30 19:22:54

Screenshots:

National Geographic - Destination Wild: Colombia (2014)

National Geographic - Destination Wild: Colombia (2014)

National Geographic - Destination Wild: Colombia (2014)

National Geographic - Destination Wild: Colombia (2014)


DOWNLOAD
(Premium Recommended)


All above links are interchangable. No password

Direct Download

Tags: National, Geographic, Destination, Colombia

National Geographic - Destination Wild: Colombia (2014) Download via Hotfile Rapidshare Fileserve Megaupload & FileSonic, National Geographic - Destination Wild: Colombia (2014) free torrent downloads included crack, serial, keygen.


Attention!Information

Members of Guest cannot leave comments.