National Geographic - Ultimate Dino Survivor (2015)

Download Now


National Geographic - Ultimate Dino Survivor (2015)
National Geographic - Ultimate Dino Survivor (2015)
HDTV | 1280x720 | .MKV/AVC @ 3941 Kbps | 43mn 58s | Audio: English AC3 384 kbps, 6 channels | Subs: None | 1.36 GiB
Genre: Documentary

"New fossils reveal the brutal life of the tyrannosaurus rex and its cousins along with their incredible ability to heal and survive what nature threw at them."

General
Unique ID
: 242119000772363344221667152753953318753 (0xB6266C61ED8A7DE6899E6A44B1A3A761)
Complete name : National.Geographic.Ultimate.Dino.Survivor.mkv
Format
: Matroska
Format version : Version 2
File size
: 1.36 GiB
Duration
: 43mn 58s
Overall bit rate : 4 413 Kbps

Video
ID : 1
Format
: AVC
Format/Info
: Advanced Video Codec
Format profile : [email protected]
Format settings, CABAC : Yes
Format settings, ReFrames : 5 frames
Codec ID
: V_MPEG4/ISO/AVC
Duration
: 43mn 58s
Bit rate
: 3 941 Kbps
Width
: 1 280 pixels
Height
: 720 pixels
Display aspect ratio : 16:9
Frame rate
: 25.000 fps
Color space
: YUV
Chroma subsampling

: 4:2:0
Bit depth
: 8 bits
Scan type
: Progressive
Bits/(Pixel*Frame)

: 0.171
Stream size
: 1.21 GiB (89%)
Writing library : x264 core 146 r2538 121396c
Encoding settings: cabac=1 / ref=5 / deblock=1:0:0 / analyse=0x3:0x113 / me=umh / subme=8 / psy=1 / psy_rd=1.00:0.00 / mixed_ref=1 / me_range=16 / chroma_me=1 / trellis=1 / 8x8dct=1 / cqm=0 / deadzone=21,11 / fast_pskip=1 / chroma_qp_offset=-2 / threads=12 / lookahead_threads=2 / sliced_threads=0 / nr=0 / decimate=1 / interlaced=0 / bluray_compat=0 / constrained_intra=0 / bframes=3 / b_pyramid=2 / b_adapt=2 / b_bias=0 / direct=3 / weightb=1 / open_gop=0 / weightp=2 / keyint=250 / keyint_min=25 / scenecut=40 / intra_refresh=0 / rc_lookahead=50 / rc=crf / mbtree=1 / crf=21.0 / qcomp=0.60 / qpmin=0 / qpmax=69 / qpstep=4 / ip_ratio=1.40 / aq=1:1.00
Default
: Yes
Forced
: No
Matrix coefficients

: BT.709-5, BT.1361, IEC 61966-2-4 709, SMPTE RP177

Audio
ID : 2
Format
: AC-3
Format/Info
: Audio Coding 3
Mode extension : CM (complete main)
Format settings, Endianness : Big
Codec ID
: A_AC3
Duration
: 43mn 58s
Bit rate mode : Constant
Bit rate
: 384 Kbps
Channel(s)
: 6 channels
Channel positions: Front: L C R, Side: L R, LFE
Sampling rate : 48.0 KHz
Bit depth
: 16 bits
Compression mode : Lossy
Stream size
: 121 MiB (9%)
Default
: Yes
Forced
: No

Screenshots:

National Geographic - Ultimate Dino Survivor (2015)

National Geographic - Ultimate Dino Survivor (2015)


Download Links:
(Premium Recommended)


All above links are interchangable. No password

Direct Download

Tags: National, Geographic, Ultimate, Survivor

National Geographic - Ultimate Dino Survivor (2015) Download via Hotfile Rapidshare Fileserve Megaupload & FileSonic, National Geographic - Ultimate Dino Survivor (2015) free torrent downloads included crack, serial, keygen.


Attention!Information

Members of Guest cannot leave comments.