BSkyB - Discovering: Simply Red (2015)

Download Now


BSkyB - Discovering: Simply Red (2015)
BSkyB - Discovering: Simply Red (2015)
HDTV | 1020x576 | .MP4/AVC @ 2984 Kbps | 22mn 2s | Audio: English AAC 160 kbps, 2 channels | Subs: None | 497 MiB
Genre: Documentary

"Leading music critics take a closer look at the rise of English soul and pop band Simply Red. Following the split of his punk group Frantic Elevators, Hucknall formed Simply Red in 1984, with David Fryman (guitar), Tony Bowers (bass), Fritz McIntyre (keyboards and vocals), Tim Kellett (brass and live backing vocals) and Chris Joyce (drums). The group signed to Elektra Records in 1985 and released the album Picture Book in October that year. The single Holding Back the Years caused the album to go platinum and made the group one of the major successes of 1986. Since then, they have sold more than 50 million albums and in 2015 they announced the release of Big Love, their first studio album in eight years. Big Love marks the 30th Anniversary of their debut release Picture Book and the celebrations continue with their Big Love tour later in 2015."

General
Complete name : BSkyB.Discovering.Simply.Red.576p.mp4
Format
: MPEG-4
Format profile : Base Media
Codec ID
: isom
File size
: 497 MiB
Duration
: 22mn 2s
Overall bit rate mode : Variable
Overall bit rate : 3 148 Kbps

Video
ID : 1
Format
: AVC
Format/Info
: Advanced Video Codec
Format profile : [email protected]
Format settings, CABAC : Yes
Format settings, ReFrames : 1 frame
Format settings, GOP : M=1, N=12
Codec ID
: avc1
Codec ID/Info : Advanced Video Coding
Duration
: 22mn 2s
Bit rate
: 2 984 Kbps
Width
: 1 020 pixels
Height
: 576 pixels
Display aspect ratio : 16:9
Frame rate mode : Constant
Frame rate
: 25.000 fps
Color space
: YUV
Chroma subsampling

: 4:2:0
Bit depth
: 8 bits
Scan type
: Progressive
Bits/(Pixel*Frame)

: 0.203
Stream size
: 471 MiB (95%)
Encoded date : UTC 2015-06-17 09:50:17
Tagged date
: UTC 2015-06-17 09:50:17

Audio
ID : 2
Format
: AAC
Format/Info
: Advanced Audio Codec
Format profile : LC
Codec ID
: 40
Duration
: 22mn 2s
Bit rate mode : Variable
Bit rate
: 160 Kbps
Channel(s)
: 2 channels
Channel positions: Front: L R
Sampling rate : 48.0 KHz
Compression mode : Lossy
Stream size
: 25.2 MiB (5%)
Encoded date : UTC 2015-06-17 09:50:17
Tagged date
: UTC 2015-06-17 09:50:17

Screenshots:

BSkyB - Discovering: Simply Red (2015)

BSkyB - Discovering: Simply Red (2015)

BSkyB - Discovering: Simply Red (2015)

BSkyB - Discovering: Simply Red (2015)


DOWNLOAD:
Buy Premium To Support Me & Get Resumable Support & Max Speed


Links are Interchangeable - No Password

Direct Download

Tags: Discovering, Simply

BSkyB - Discovering: Simply Red (2015) Download via Hotfile Rapidshare Fileserve Megaupload & FileSonic, BSkyB - Discovering: Simply Red (2015) free torrent downloads included crack, serial, keygen.


Attention!Information

Members of Guest cannot leave comments.