Channel 4 - Gadget Man: Series 3 (2014)

Download Now


Channel 4 - Gadget Man: Series 3 (2014)
Channel 4 - Gadget Man: Series 3 (2014)
HDTV | 1280x720 | .MP4/AVC @ 3068 Kbps | 9x~23min | Audio: English AAC 160 kbps, 2 channels | Subs: None | 5.27 GiB
Genre: Documentary

"Richard Ayoade welcomes viewers to the world of gadgets and new technology - covering everything from the everyday to the extraordinary, Richard presents the third series. He still isn't finding life any easier. That's why he's continuing his crusade to find gadgets that can ease his pain..."

Note:
Run-Time: Parts 1- 8 = 24mins - Part 9 = 47mins
Part Size: Parts 1-8 = 542 MB - Part 9 = 1.05 GB
Part 1: Weather
Richard Ayoade takes on the worst of the British climate, braving a hurricane in a wind tunnel with the help of Tim Vine to assess the best in gust-busting gadgetry. He's also joined by Marcus Brigstocke at the Hemel Hempstead Snow Centre to pressure-test cold-weather technology - with unexpected results. Finally, he reveals his bespoke survival raft built to withstand the meteorological apocalypse he's convinced is just around the corner.

Part 2: Public Transport
Richard Ayoade turns his attention to public transport, as Russell Howard joins him on the Tube to assess the effectiveness of gadgets designed to tackle poor air quality and extreme heat. Richard also takes to the London skies in a cable car to check out mobile entertainment devices, before riding a commuter train with Adam Buxton to test portable cleaning and sanitising devices. The show culminates in the unveiling of a prototype for a driverless taxi.

Part 3: The Staycation
Richard Ayoade and comedian Phill Jupitus go on a day out, testing a range of gadgets and technology, from the world's tiniest caravan to 360-degree cameras, 300lt rucksacks and a pair of trousers that transform into a picnic table. Back at home, Richard's technical team sources contraptions that allow him not only to visit Maidstone's Teapot Island from the comfort of the visitor car park, but also to join Phill on a taxing country hike - without expending any energy.

Part 4: Shopping
Richard asks farmer and foodie Jimmy Doherty to join him for a visit to the supermarket to trial gadgets designed to ease grocery shopping, including a robotic assistant, a fruit ripeness reader and a food ethics scanner. He then turns his attention to clothes shopping and heads to a department store, with actress Alison Steadman in tow, to test a 3D virtual mirror and a check out a mannequin with expanding bust and hips.

Part 5: Self Improvement
Richard investigates whether he can make himself a brighter, better man with the aid of gadgetry. First, he tests his reactions against TV anchorman Eamonn Holmes, before taking on actor Richard E Grant in a series of concentration challenges that involve controlling a Scalextric model car and flying a drone simply with mind power. The presenter also realises that to prosper in a battle with memory champion Dominic O'Brien he must resort to cheating.

Part 6: Staying in
Richard Ayoade showcases gadgets that highlight the benefits of staying home. Comedian Seann Walsh joins him to check out designs that deliver the health benefits of the great outdoors without the dirt and danger leaving the house can include. Richard then enjoys the company of mechanised pets before inviting comedian David Mitchell round to try out the latest gaming technologies. Lastly, he demonstrates live holographic broadcast technology that allows the host to party without the need for guests to attend, proving that leaving the home could be a thing of the past.

Part 7: Cooking and Dining Out
Richard Ayoade confronts the horror of cooking and dining out as he attempts to create his very own utopian eatery, consulting leading food scientists and checking out gadgets more at home in a laboratory than a kitchen. He invites guest Adrian Edmondson to join him at his unique bistro, complete with printed food, robot waiters, computerised wine sniffers, zero-calorie electronic starters, levitating desserts and transparent coffee.

Part 8: Property
Richard tackles property conundrums with the help of technology. An army of window-cleaning robots helps get the gadget house ready for viewings, interior designer Naomi Cleaver reveals garden pods dedicated to solving issues with home space, and Strictly Come Dancing co-host Claudia Winkleman joins the presenter on a tour of one of the country's most cutting-edge homes.

Part 9: Guide to Christmas 2014
Richard and celebrity friends help improve Christmas with gadgets for shopping, to wrap presents, beat the weather, cook the dinner and even improve your carol singing

General
Complete name : Gadget.Man.Series.3.1of9.Weather.mp4
Format
: MPEG-4
Format profile : Base Media
Codec ID
: isom
File size
: 542 MiB
Duration
: 23mn 26s
Overall bit rate mode : Variable
Overall bit rate : 3 233 Kbps

Video
ID : 1
Format
: AVC
Format/Info
: Advanced Video Codec
Format profile : [email protected]
Format settings, CABAC : No
Format settings, ReFrames : 1 frame
Format settings, GOP : M=1, N=12
Codec ID
: avc1
Codec ID/Info : Advanced Video Coding
Duration
: 23mn 26s
Bit rate
: 3 068 Kbps
Width
: 1 280 pixels
Height
: 720 pixels
Display aspect ratio : 16:9
Frame rate mode : Constant
Frame rate
: 25.000 fps
Color space
: YUV
Chroma subsampling

: 4:2:0
Bit depth
: 8 bits
Scan type
: Progressive
Bits/(Pixel*Frame)

: 0.133
Stream size
: 515 MiB (95%)
Encoded date : UTC 2015-06-16 10:31:04
Tagged date
: UTC 2015-06-16 10:31:04

Audio
ID : 2
Format
: AAC
Format/Info
: Advanced Audio Codec
Format profile : LC
Codec ID
: 40
Duration
: 23mn 26s
Bit rate mode : Variable
Bit rate
: 160 Kbps
Channel(s)
: 2 channels
Channel positions: Front: L R
Sampling rate : 48.0 KHz
Compression mode : Lossy
Stream size
: 26.8 MiB (5%)
Language
: English
Encoded date : UTC 2015-06-16 10:31:04
Tagged date
: UTC 2015-06-16 10:31:04

Screenshots:

Channel 4 - Gadget Man: Series 3 (2014)

Channel 4 - Gadget Man: Series 3 (2014)

Channel 4 - Gadget Man: Series 3 (2014)

Channel 4 - Gadget Man: Series 3 (2014)


Download links:
(Buy premium account via my links to have best speed and resumable ability)


Interchangeable links - No Pass

Direct Download

Tags: Channel, Gadget, Series

Channel 4 - Gadget Man: Series 3 (2014) Download via Hotfile Rapidshare Fileserve Megaupload & FileSonic, Channel 4 - Gadget Man: Series 3 (2014) free torrent downloads included crack, serial, keygen.


Attention!Information

Members of Guest cannot leave comments.