History Channel - Clash of Warriors: Halsey vs. Kurita - Leyte Gulf (2000)

Download Now

History Channel - Clash of Warriors: Halsey vs. Kurita - Leyte Gulf (2000)

History Channel - Clash of Warriors: Halsey vs. Kurita - Leyte Gulf (2000)
DVDRip | English | AVI/XviD 29.970 fps 2286 Kbps | 720x544 | AC3 256 Kbps 48.0 khz | 43mn 11s | 789 MB
Genre: Documentary

"In anticipation of an Allied invasion of the Philippines, Japanese commander devised a brilliant plan and a secret weapon to counter the United States' overwhelming military might. Would it be enough to overcome Admiral William Halsey's heavily reinforced protection forces?"

General
Complete name : HC.Clash.of.Warriors.Halsey.vs.Kurita.Leyte.Gulf.avi
Format
: AVI
Format/Info
: Audio Video Interleave
File size
: 789 MiB
Duration
: 43mn 11s
Overall bit rate : 2 554 Kbps

Video
ID : 0
Format
: MPEG-4 Visual
Format profile : Advanced [email protected]
Format settings, BVOP : 1
Format settings, QPel : No
Format settings, GMC : No warppoints
Format settings, Matrix : Default (MPEG)
Codec ID
: DX50
Codec ID/Hint : DivX 5
Duration
: 43mn 11s
Bit rate
: 2 286 Kbps
Width
: 720 pixels
Height
: 544 pixels
Display aspect ratio : 4:3
Frame rate
: 29.970 fps
Color space
: YUV
Chroma subsampling

: 4:2:0
Bit depth
: 8 bits
Scan type
: Progressive
Compression mode : Lossy
Bits/(Pixel*Frame)

: 0.195
Stream size
: 706 MiB (90%)
Title
: Video
Writing library : XviD 1.2.1 (UTC 2008-12-04)

Audio
ID : 1
Format
: AC-3
Format/Info
: Audio Coding 3
Mode extension : CM (complete main)
Format settings, Endianness : Big
Codec ID
: 2000
Duration
: 43mn 11s
Bit rate mode : Constant
Bit rate
: 256 Kbps
Channel(s)
: 2 channels
Channel positions: Front: L R
Sampling rate : 48.0 KHz
Bit depth
: 16 bits
Compression mode : Lossy
Stream size
: 79.1 MiB (10%)
Alignment
: Split accross interleaves
Interleave, duration : 33 ms (1.00 video frame)
Interleave, preload duration : 500 ms
Title
: Audio

Screenshots

History Channel - Clash of Warriors: Halsey vs. Kurita - Leyte Gulf (2000)

History Channel - Clash of Warriors: Halsey vs. Kurita - Leyte Gulf (2000)

History Channel - Clash of Warriors: Halsey vs. Kurita - Leyte Gulf (2000)



Download:
Buy Premium To Support Me & Get Resumable Support & Max Speed


Links are Interchangeable - No Password

Direct Download

Tags: History, Channel, Warriors, Halsey, Kurita

History Channel - Clash of Warriors: Halsey vs. Kurita - Leyte Gulf (2000) Download via Hotfile Rapidshare Fileserve Megaupload & FileSonic, History Channel - Clash of Warriors: Halsey vs. Kurita - Leyte Gulf (2000) free torrent downloads included crack, serial, keygen.


Attention!Information

Members of Guest cannot leave comments.