N.G. Explorer - Sex, Lies, and Gender (2015)

Download Now

N.G. Explorer - Sex, Lies, and Gender (2015)

N.G. Explorer - Sex, Lies, and Gender (2015)
HDTV | English | MP4 | 1280x720 | AVC 3014 Kbps 29.970 fps | AAC 160 Kbps 48.0 khz | 46mn 8s | 1.02 GB
Genre: Documentary

"The gender of a newborn child is not always clearly male or female. For parents of gender variant children, the decisions they face have lifelong and sometimes horribly conflicting consequences. National Geographic investigates the science behind gender, how doctors and parents approach gender decisions, and explore traditional and controversial therapies."

General
Complete name : National.Geographic.Sex.Lies.and.Gender.mp4
Format
: MPEG-4
Format profile : Base Media
Codec ID
: isom
File size
: 1.02 GiB
Duration
: 46mn 8s
Overall bit rate mode : Variable
Overall bit rate : 3 178 Kbps
Encoded date : UTC 2015-07-20 13:25:37
Tagged date
: UTC 2015-07-20 13:25:37
Writing application

: Lavf51.12.1

Video
ID : 1
Format
: AVC
Format/Info
: Advanced Video Codec
Format profile : [email protected]
Format settings, CABAC : No
Format settings, ReFrames : 1 frame
Format settings, GOP : M=1, N=12
Codec ID
: avc1
Codec ID/Info : Advanced Video Coding
Duration
: 46mn 8s
Bit rate
: 3 014 Kbps
Width
: 1 280 pixels
Height
: 720 pixels
Display aspect ratio : 16:9
Frame rate mode : Constant
Frame rate
: 29.970 fps
Color space
: YUV
Chroma subsampling

: 4:2:0
Bit depth
: 8 bits
Scan type
: Progressive
Bits/(Pixel*Frame)

: 0.109
Stream size
: 995 MiB (95%)
Encoded date : UTC 2015-07-20 13:25:37
Tagged date
: UTC 2015-07-20 13:25:37

Audio
ID : 2
Format
: AAC
Format/Info
: Advanced Audio Codec
Format profile : LC
Codec ID
: 40
Duration
: 46mn 8s
Bit rate mode : Variable
Bit rate
: 160 Kbps
Channel(s)
: 2 channels
Channel positions: Front: L R
Sampling rate : 48.0 KHz
Compression mode : Lossy
Stream size
: 52.7 MiB (5%)
Encoded date : UTC 2015-07-20 13:25:37
Tagged date
: UTC 2015-07-20 13:25:37

Screenshots

N.G. Explorer - Sex, Lies, and Gender (2015)

N.G. Explorer - Sex, Lies, and Gender (2015)

N.G. Explorer - Sex, Lies, and Gender (2015)

N.G. Explorer - Sex, Lies, and Gender (2015)


DOWNLOAD LINKS:
(Premium Recommended)


All above links are interchangable. No password

Direct Download

Tags: Explorer, Gender

N.G. Explorer - Sex, Lies, and Gender (2015) Download via Hotfile Rapidshare Fileserve Megaupload & FileSonic, N.G. Explorer - Sex, Lies, and Gender (2015) free torrent downloads included crack, serial, keygen.


Attention!Information

Members of Guest cannot leave comments.