Channel 4 - The Autistic Gardener: Series 1 (2015)

Download Now


Channel 4 - The Autistic Gardener: Series 1 (2015)
Channel 4 - The Autistic Gardener: Series 1 (2015)
HDTV | 1280x720 | .MP4/AVC @ 3033 Kbps | 4x~47min | Audio: English AAC 160 kbps, 2 channels | Subs: None | 4.2 GiB
Genre: Documentary

"You might have seen Alan Gardner exhibiting at the Chelsea Flower Show. You could hardly miss him with his shock of vermillion hair, tattoos and exquisitely painted fingernails. But he has an unusual take on life, too, because he has autism. He's taken on a bunch of five keen horticulturalists who are also on the autistic spectrum (or "my weirdly wired proteges" as he calls them) for this garden makeover show with a difference. It's an intriguing experiment because some of his team can't cope with social situations, vocalise their thoughts or stay focused, while others get obsessed with details, straight lines or their own fixations. But, as Alan explains about the condition, "When you connect with what stimulates you... you can unlock genius." The series is less about gardening and more about their unorthodox approach to it, but as you get to know the individuals, you start to see past their different traits and recognise their creative talents."

Part 1: Ashbourne Derbyshire
Award-winning designer Alan Gardner assembles a team of fellow autistic horticultural enthusiasts to tackle a series of unruly gardens, beginning with Ben and Rebecca's overgrown wilderness in Ashbourne, Derbyshire. The couple are hoping for their Description to be transformed into a low-maintenance and fun garden for their family to enjoy, setting a stern test for Alan and his assistants Thomas, Charles, Philip, James and Victoria, on a time limit and a budget of £3,000.

Part 2: West London
Alan and his team of fellow autistic horticultural enthusiasts visit Ealing in West London, where they have taken on a small garden with a big problem. James and Sophie's neglected Description is only eight by four metres and is on two levels, with a one-metre drop. The challenge facing the team is to make the most of the limited space available so that the garden looks and feels bigger, with just one week to make the changes and a budget of £1,200.

Part 3: South London
Alan and his team take on their biggest garden yet, an overgrown 95-foot Description in South London owned by Zak and Eloise, with a £10,000 budget to spend on the transformation. They have lived in the house with their two children for a year and have yet to tackle the garden. Alan and the gardeners are struck by the many sounds surrounding the space, from rustling leaves to passing trains, aircraft overhead and the crunchy gravel, so they decide to create a sound garden for the family - but will the clients understand what the ambitious gardeners are trying to achieve?

Part 4: North East London
Award-winning designer Alan Gardner and his team of fellow autistic horticultural enthusiasts tackle another unruly garden, this time setting out to radically update a neglected Description for two twentysomethings, both named Alex, in North East London. Alan and the team decide to bring a sense of the modern and tropical to the 60ft by 20ft space and have a budget of just £5,000 to complete their ambitious plans, but it won't stop raining - will the non-stop downpours scupper their plans?

General
Complete name : The.Autistic.Gardener.Series.1.1of4.Ashbourne.Derbyshire.mp4
Format
: MPEG-4
Format profile : Base Media
Codec ID
: isom
File size
: 1.06 GiB
Duration
: 47mn 22s
Overall bit rate mode : Variable
Overall bit rate : 3 197 Kbps

Video
ID : 1
Format
: AVC
Format/Info
: Advanced Video Codec
Format profile : [email protected]
Format settings, CABAC : No
Format settings, ReFrames : 1 frame
Format settings, GOP : M=1, N=12
Codec ID
: avc1
Codec ID/Info : Advanced Video Coding
Duration
: 47mn 22s
Bit rate
: 3 033 Kbps
Width
: 1 280 pixels
Height
: 720 pixels
Display aspect ratio : 16:9
Frame rate mode : Constant
Frame rate
: 25.000 fps
Color space
: YUV
Chroma subsampling

: 4:2:0
Bit depth
: 8 bits
Scan type
: Progressive
Bits/(Pixel*Frame)

: 0.132
Stream size
: 1.00 GiB (95%)
Encoded date : UTC 2015-07-31 21:45:34
Tagged date
: UTC 2015-07-31 21:45:34

Audio
ID : 2
Format
: AAC
Format/Info
: Advanced Audio Codec
Format profile : LC
Codec ID
: 40
Duration
: 47mn 22s
Bit rate mode : Variable
Bit rate
: 160 Kbps
Channel(s)
: 2 channels
Channel positions: Front: L R
Sampling rate : 48.0 KHz
Compression mode : Lossy
Stream size
: 54.2 MiB (5%)
Encoded date : UTC 2015-07-31 21:45:34
Tagged date
: UTC 2015-07-31 21:45:34

Screenshots:

Channel 4 - The Autistic Gardener: Series 1 (2015)

Channel 4 - The Autistic Gardener: Series 1 (2015)

Channel 4 - The Autistic Gardener: Series 1 (2015)

Channel 4 - The Autistic Gardener: Series 1 (2015)


Download links:
(Buy premium account via my links to have best speed and resumable ability)


Interchangeable links - No Pass

Direct Download

Tags: Channel, Autistic, Gardener, Series

Channel 4 - The Autistic Gardener: Series 1 (2015) Download via Hotfile Rapidshare Fileserve Megaupload & FileSonic, Channel 4 - The Autistic Gardener: Series 1 (2015) free torrent downloads included crack, serial, keygen.


Attention!Information

Members of Guest cannot leave comments.