BBC - Soup Cans and Superstars: How Pop Art Changed the World (2015)

Download Now


BBC - Soup Cans and Superstars: How Pop Art Changed the World (2015)
BBC - Soup Cans and Superstars: How Pop Art Changed the World (2015)
HDTV | 1280x720 | .MP4/AVC @ 3029 Kbps | 1h 29mn | Audio: English AAC 159 kbps, 2 channels | Subs: English | 1.99 GiB
Genre: Documentary

"In the centrepiece film of BBC Four's pop art season, Alastair Sooke champions pop art as one of the most important art forms of the twentieth century, peeling back pop's frothy, ironic surface to reveal an art style full of subversive wit and radical ideas. In charting its story, Alastair brings a fresh eye to the work of pop art superstars Andy Warhol and Roy Lichtenstein and tracks down pop's pioneers, from American artists like James Rosenquist, Claes Oldenburg and Ed Ruscha to British godfathers Peter Blake and Allen Jones. Alastair also explores how pop's fascination with celebrity, advertising and the mass media was part of a global art movement, and he travels to China to discover how a new generation of artists are reinventing pop art's satirical, political edge for the 21st century."

General
Complete name : BBC.Soup.Cans.and.Superstars.How.Pop.Art.Changed.the.World.mp4
Format
: MPEG-4
Format profile : Base Media
Codec ID
: isom
File size
: 1.99 GiB
Duration
: 1h 29mn
Overall bit rate mode : Variable
Overall bit rate : 3 191 Kbps

Video
ID : 1
Format
: AVC
Format/Info
: Advanced Video Codec
Format profile : [email protected]
Format settings, CABAC : No
Format settings, ReFrames : 1 frame
Format settings, GOP : M=1, N=12
Codec ID
: avc1
Codec ID/Info : Advanced Video Coding
Duration
: 1h 29mn
Bit rate
: 3 029 Kbps
Maximum bit rate : 11.4 Mbps
Width
: 1 280 pixels
Height
: 720 pixels
Display aspect ratio : 16:9
Frame rate mode : Constant
Frame rate
: 25.000 fps
Color space
: YUV
Chroma subsampling

: 4:2:0
Bit depth
: 8 bits
Scan type
: Progressive
Bits/(Pixel*Frame)

: 0.131
Stream size
: 1.89 GiB (95%)
Tagged date
: UTC 2015-08-25 08:49:47

Audio
ID : 2
Format
: AAC
Format/Info
: Advanced Audio Codec
Format profile : LC
Codec ID
: 40
Duration
: 1h 29mn
Bit rate mode : Variable
Bit rate
: 159 Kbps
Maximum bit rate : 222 Kbps
Channel(s)
: 2 channels
Channel positions: Front: L R
Sampling rate : 48.0 KHz
Compression mode : Lossy
Stream size
: 102 MiB (5%)
Encoded date : UTC 2015-08-25 08:48:10
Tagged date
: UTC 2015-08-25 08:49:47

Text
ID : 3
Format
: Timed text
Codec ID
: tx3g
Duration
: 1h 28mn
Bit rate mode : Variable
Bit rate
: 97 bps
Stream size
: 62.8 KiB (0%)
Encoded date : UTC 2015-08-25 08:49:46
Tagged date
: UTC 2015-08-25 08:49:47

Screenshots:

BBC - Soup Cans and Superstars: How Pop Art Changed the World (2015)

BBC - Soup Cans and Superstars: How Pop Art Changed the World (2015)

BBC - Soup Cans and Superstars: How Pop Art Changed the World (2015)

BBC - Soup Cans and Superstars: How Pop Art Changed the World (2015)


DOWNLOAD LINKS:
Buy Premium To Support Me & Get Resumable Support & Max Speed


Links are Interchangeable - No Password - Single Extraction

Direct Download

Tags: Superstars, Changed

BBC - Soup Cans and Superstars: How Pop Art Changed the World (2015) Download via Hotfile Rapidshare Fileserve Megaupload & FileSonic, BBC - Soup Cans and Superstars: How Pop Art Changed the World (2015) free torrent downloads included crack, serial, keygen.


Attention!Information

Members of Guest cannot leave comments.