BBC - Carol Klein's Plant Odysseys Series 1 (2015)

Download Now


BBC - Carol Klein's Plant Odysseys Series 1 (2015)
BBC - Carol Klein's Plant Odysseys Series 1 (2015)
HDTV | 1280x720 | .MP4/AVC @ 3015 Kbps | 4x~29min | Audio: English AAC 155 kbps, 2 channels | Subs: English | 2.6 GiB
Genre: Documentary

"Four-part series in which Carol Klein explores the inner secrets and botanical history of four of our favourite garden plants: the rose, the tulip, the iris and the water lily."

Part 1: Roses
The first episode looks at the rose. The rose has always meant so much to Britain - it is embedded in our history, our fairy tales and our hearts. Carol goes on a very British plant odyssey. To understand the origins of our most cherished garden flower, we need look no further than the hedgerow. Our native dog rose - Rosa canina - has changed very little in 37 million years. Its prickles, acting like tiny crampons, allow it to climb above other plants and protect them from being eaten. As a second line of defence, they even harbour bacteria to fend off hungry assailants. The Romans adored its simple flowers, but they adored densely-petalled mutations even more and soon began to develop these by taking cuttings. At Exeter Cathedral, Carol sees what an important symbol it has been to religion, and we discover that a chance meeting in the 18th century between two roses on the Island of Reunion created a whole new class of rose

Part 2: Tulips
Carol's quest to uncover the colourful history of the tulip begins high in the mountains of eastern Turkey, where an early ancestor of those grown in today's gardens can be found flourishing in the harshest of environments. The next leg of her journey takes her to the Frans Hals Museum in Haarlem, Holland, where she discovers how the wealthy elite were struck by tulip mania and the Dutch economy was almost brought to its knees.

Part 3: Iris
Carol examines the intricate biology of the iris and looks into its intimate relationship with bees, using an endoscopic camera to reveal how the insect uses ultraviolet vision to see each flower. She also explores its cultural significance to mankind over thousands of years, learning of the importance of some species in the funeral traditions of Islam and its use in perfume manufacture in Florence. Plus, Carol meets an enthusiast rebuilding the iris collection of artist Cedric Morris

Part 4: Waterlily
Carol takes a look at history and development of the water lily, a plant of unlikely economic importance, spiritual significance and artistic inspiration. She meets a leading experts in water-lily breeding to find out about a plant-insect relationship that brings about a dramatic overnight colour and sex change, and learns about its unique prehistoric pollinating system. She also visits South Korea and takes part in a festival held in honour of the lotus, a close relative of the water lily that is revered by Buddhist monks.

General
Complete name : BBC.Carol.Kleins.Plant.Odysseys.Series.1.1of4.Roses.mp4
Format
: MPEG-4
Format profile : Base Media
Codec ID
: isom
File size
: 660 MiB
Duration
: 29mn 5s
Overall bit rate mode : Variable
Overall bit rate : 3 173 Kbps

Video
ID : 1
Format
: AVC
Format/Info
: Advanced Video Codec
Format profile : [email protected]
Format settings, CABAC : No
Format settings, ReFrames : 1 frame
Format settings, GOP : M=1, N=12
Codec ID
: avc1
Codec ID/Info : Advanced Video Coding
Duration
: 29mn 5s
Bit rate
: 3 015 Kbps
Maximum bit rate : 10.6 Mbps
Width
: 1 280 pixels
Height
: 720 pixels
Display aspect ratio : 16:9
Frame rate mode : Constant
Frame rate
: 25.000 fps
Color space
: YUV
Chroma subsampling

: 4:2:0
Bit depth
: 8 bits
Scan type
: Progressive
Bits/(Pixel*Frame)

: 0.131
Stream size
: 627 MiB (95%)
Encoded date : UTC 2015-08-17 21:40:59
Tagged date
: UTC 2015-08-20 12:00:23

Audio
ID : 2
Format
: AAC
Format/Info
: Advanced Audio Codec
Format profile : LC
Codec ID
: 40
Duration
: 29mn 5s
Bit rate mode : Variable
Bit rate
: 155 Kbps
Maximum bit rate : 202 Kbps
Channel(s)
: 2 channels
Channel positions: Front: L R
Sampling rate : 48.0 KHz
Compression mode : Lossy
Stream size
: 32.2 MiB (5%)
Encoded date : UTC 2015-08-20 12:00:21
Tagged date
: UTC 2015-08-20 12:00:23

Text
ID : 3
Format
: Timed text
Codec ID
: tx3g
Duration
: 28mn 32s
Bit rate mode : Variable
Bit rate
: 95 bps
Stream size
: 20.0 KiB (0%)
Encoded date : UTC 2015-08-20 12:00:23
Tagged date
: UTC 2015-08-20 12:00:23

Screenshots:

BBC - Carol Klein's Plant Odysseys Series 1 (2015)

BBC - Carol Klein's Plant Odysseys Series 1 (2015)

BBC - Carol Klein's Plant Odysseys Series 1 (2015)

BBC - Carol Klein's Plant Odysseys Series 1 (2015)


DOWNLOAD LINKS
Buy Premium From My Links To Get Resumable Support & Max Speed & To Support Me

Rapidgator.net:
http://rapidgator.net/file/b5a4185100c84351f7479c1f8ca3a937/xfjdp.BBC.C.K.P.O.S.1.2015.part1.rar.html
http://rapidgator.net/file/e23bf6b5edbbd837d45c06124ba9d193/xfjdp.BBC.C.K.P.O.S.1.2015.part2.rar.html
http://rapidgator.net/file/0ed28589ab82ced6376d5df51b79568c/xfjdp.BBC.C.K.P.O.S.1.2015.part3.rar.html
http://rapidgator.net/file/74869b25255bd29315bf7540c9f0fbd8/xfjdp.BBC.C.K.P.O.S.1.2015.part4.rar.html
http://rapidgator.net/file/db56f3bbae7612876a9be89f6fdb5449/xfjdp.BBC.C.K.P.O.S.1.2015.part5.rar.html
http://rapidgator.net/file/f6e5fe5601fb0b1bbdfffc26fc0db618/xfjdp.BBC.C.K.P.O.S.1.2015.part6.rar.html
http://rapidgator.net/file/9a2e01a7b863230fe4cf6c44b4d8f6ac/xfjdp.BBC.C.K.P.O.S.1.2015.part7.rar.html

Uploaded.net:
http://uploaded.net/file/3mcu06yv/xfjdp.BBC.C.K.P.O.S.1.2015.part1.rar
http://uploaded.net/file/vjlt474y/xfjdp.BBC.C.K.P.O.S.1.2015.part2.rar
http://uploaded.net/file/ymkm8jg6/xfjdp.BBC.C.K.P.O.S.1.2015.part3.rar
http://uploaded.net/file/4qbu5rhm/xfjdp.BBC.C.K.P.O.S.1.2015.part4.rar
http://uploaded.net/file/btfirp9u/xfjdp.BBC.C.K.P.O.S.1.2015.part5.rar
http://uploaded.net/file/8xhz3hbs/xfjdp.BBC.C.K.P.O.S.1.2015.part6.rar
http://uploaded.net/file/syeyrm5e/xfjdp.BBC.C.K.P.O.S.1.2015.part7.rar

Uploadable.ch:
http://www.uploadable.ch/file/tpSB75WtFZxJ/xfjdp.BBC.C.K.P.O.S.1.2015.part1.rar
http://www.uploadable.ch/file/mfbBsdx2QWuT/xfjdp.BBC.C.K.P.O.S.1.2015.part2.rar
http://www.uploadable.ch/file/VjEm7p9hfgFh/xfjdp.BBC.C.K.P.O.S.1.2015.part3.rar
http://www.uploadable.ch/file/dvKFEEfsdA8Z/xfjdp.BBC.C.K.P.O.S.1.2015.part4.rar
http://www.uploadable.ch/file/pyg3EkSZhXwr/xfjdp.BBC.C.K.P.O.S.1.2015.part5.rar
http://www.uploadable.ch/file/UjhgFkWkKbr2/xfjdp.BBC.C.K.P.O.S.1.2015.part6.rar
http://www.uploadable.ch/file/sqWPKb6kK4hk/xfjdp.BBC.C.K.P.O.S.1.2015.part7.rar

Links are Interchangeable - No Password - Single Extraction

Direct Download

Tags: Odysseys, Series

BBC - Carol Klein's Plant Odysseys Series 1 (2015) Download via Hotfile Rapidshare Fileserve Megaupload & FileSonic, BBC - Carol Klein's Plant Odysseys Series 1 (2015) free torrent downloads included crack, serial, keygen.


Attention!Information

Members of Guest cannot leave comments.