Steve Jobs: The Man in the Machine (2015)

Download Now


Steve Jobs: The Man in the Machine (2015)
Steve Jobs: The Man in the Machine (2015)
BluRay | 1280x720 | .MKV/AVC @ 4571 Kbps | 2h 8mn | Audio: English DTS 1509 kbps, 6 channels | Subs: None | 5.47 GiB
Genre: Documentary

"In his signature black turtleneck and blue jeans, shrouded in shadows below a milky apple, Steve Jobs' image was ubiquitous. But who was the man on the stage? What accounted for the grief of so many across the world when he died? From Oscar-winning director Alex Gibney, 'Steve Jobs: The Man In The Machine' is a critical examination of Jobs who was at once revered as an iconoclastic genius and a barbed-tongued tyrant. A candid look at Jobs' legacy featuring interviews with a handful of those close to him at different stages in his life, the film is evocative and nuanced in capturing the essence of the Apple legend and his values which shape the culture of Silicon Valley to this day."

More info

General
Complete name : steve.jobs.the.man.in.the.machine.2015.bluray.mkv
Format
: Matroska
Format version : Version 2
File size
: 5.47 GiB
Duration
: 2h 8mn
Overall bit rate : 6 083 Kbps

Video
ID : 1
Format
: AVC
Format/Info
: Advanced Video Codec
Format profile : [email protected]
Format settings, CABAC : Yes
Format settings, ReFrames : 5 frames
Codec ID
: V_MPEG4/ISO/AVC
Duration
: 2h 8mn
Bit rate
: 4 571 Kbps
Width
: 1 280 pixels
Height
: 720 pixels
Display aspect ratio : 16:9
Frame rate mode : Constant
Frame rate
: 23.976 fps
Color space
: YUV
Chroma subsampling

: 4:2:0
Bit depth
: 8 bits
Scan type
: Progressive
Bits/(Pixel*Frame)

: 0.207
Stream size
: 4.00 GiB (73%)
Writing library : x264 core 148 r2638 7599210
Encoding settings: cabac=1 / ref=5 / deblock=1:0:0 / analyse=0x3:0x133 / me=umh / subme=7 / psy=1 / psy_rd=1.00:0.00 / mixed_ref=1 / me_range=16 / chroma_me=1 / trellis=1 / 8x8dct=1 / cqm=0 / deadzone=21,11 / fast_pskip=0 / chroma_qp_offset=-2 / threads=6 / lookahead_threads=1 / sliced_threads=0 / nr=0 / decimate=1 / interlaced=0 / bluray_compat=0 / constrained_intra=0 / bframes=3 / b_pyramid=2 / b_adapt=2 / b_bias=0 / direct=3 / weightb=1 / open_gop=0 / weightp=2 / keyint=250 / keyint_min=23 / scenecut=40 / intra_refresh=0 / rc_lookahead=50 / rc=2pass / mbtree=1 / bitrate=4571 / ratetol=1.0 / qcomp=0.60 / qpmin=0 / qpmax=69 / qpstep=4 / cplxblur=20.0 / qblur=0.5 / ip_ratio=1.40 / aq=1:1.00
Language
: English
Default
: Yes
Forced
: No

Audio
ID : 2
Format
: DTS
Format/Info
: Digital Theater Systems
Mode
: 16
Format settings, Endianness : Big
Codec ID
: A_DTS
Duration
: 2h 8mn
Bit rate mode : Constant
Bit rate
: 1 509 Kbps
Channel(s)
: 6 channels
Channel positions: Front: L C R, Side: L R, LFE
Sampling rate : 48.0 KHz
Bit depth
: 24 bits
Compression mode : Lossy
Stream size
: 1.36 GiB (25%)
Language
: English
Default
: Yes
Forced
: No

Menu
00:00:00.000 : en:00:00:00.000
00:07:19.356 : en:00:07:19.356
00:17:57.285 : en:00:17:57.285
00:26:04.646 : en:00:26:04.646
00:36:21.179 : en:00:36:21.179
00:42:57.617 : en:00:42:57.617
00:49:40.394 : en:00:49:40.394
00:58:19.621 : en:00:58:19.621
01:06:43.291 : en:01:06:43.291
01:14:39.225 : en:01:14:39.225
01:24:30.607 : en:01:24:30.607
01:32:46.686 : en:01:32:46.686
01:38:38.204 : en:01:38:38.204
01:46:38.934 : en:01:46:38.934
01:54:01.626 : en:01:54:01.626
02:01:09.637 : en:02:01:09.637
02:07:00.196 : en:02:07:00.196

Screenshots:

Steve Jobs: The Man in the Machine (2015)

Steve Jobs: The Man in the Machine (2015)

Steve Jobs: The Man in the Machine (2015)

Steve Jobs: The Man in the Machine (2015)


DOWNLOAD LINKS
Buy Premium From My Links To Get Resumable Support & Max Speed & To Support Me

Uploaded.net:
http://uploaded.net/file/60p46do9/8l5us.S.J.T.M.i.t.M.2015.part01.rar
http://uploaded.net/file/b79pg4jc/8l5us.S.J.T.M.i.t.M.2015.part02.rar
http://uploaded.net/file/xsat10lj/8l5us.S.J.T.M.i.t.M.2015.part03.rar
http://uploaded.net/file/ycela0lr/8l5us.S.J.T.M.i.t.M.2015.part04.rar
http://uploaded.net/file/9f5giqqa/8l5us.S.J.T.M.i.t.M.2015.part05.rar
http://uploaded.net/file/ww7n2cki/8l5us.S.J.T.M.i.t.M.2015.part06.rar
http://uploaded.net/file/d1qutwfp/8l5us.S.J.T.M.i.t.M.2015.part07.rar
http://uploaded.net/file/ssle5uac/8l5us.S.J.T.M.i.t.M.2015.part08.rar
http://uploaded.net/file/tcifw0dk/8l5us.S.J.T.M.i.t.M.2015.part09.rar

Rapidgator.net:
http://rapidgator.net/file/6c0d5c142323a5c785f01c2435f6aec5/8l5us.S.J.T.M.i.t.M.2015.part01.rar.html
http://rapidgator.net/file/30cb1f596475e4c8ed34423c7dd60a46/8l5us.S.J.T.M.i.t.M.2015.part02.rar.html
http://rapidgator.net/file/7ea2346900b97fa5ec49bf1f128fa92c/8l5us.S.J.T.M.i.t.M.2015.part03.rar.html
http://rapidgator.net/file/c23b371c51f385cffae53267808572b8/8l5us.S.J.T.M.i.t.M.2015.part04.rar.html
http://rapidgator.net/file/6c82bc8c1744d39debc84bbc1ea3db8b/8l5us.S.J.T.M.i.t.M.2015.part05.rar.html
http://rapidgator.net/file/16b6bc7ba33d883f41f206d237212792/8l5us.S.J.T.M.i.t.M.2015.part06.rar.html
http://rapidgator.net/file/fd3f83419a686cc8e1ed7c0176c89337/8l5us.S.J.T.M.i.t.M.2015.part07.rar.html
http://rapidgator.net/file/75465c59e074ee8fade507e6d836593a/8l5us.S.J.T.M.i.t.M.2015.part08.rar.html
http://rapidgator.net/file/82b9b3f7c84cd04e4df59b56cdcc73e9/8l5us.S.J.T.M.i.t.M.2015.part09.rar.html

Links are Interchangeable - No Password - Single Extraction

Direct Download

Tags: Machine

Steve Jobs: The Man in the Machine (2015) Download via Hotfile Rapidshare Fileserve Megaupload & FileSonic, Steve Jobs: The Man in the Machine (2015) free torrent downloads included crack, serial, keygen.


Attention!Information

Members of Guest cannot leave comments.